1. General
  2. Unique ID : 192182960524748887038630153749975019765 (0x90951783525C1F0FDD926F49B65C30F5)
  3. Complete name : Cobra.Kai.S02E01.Mercy.Part.2.1080p.BluRay.REMUX.AVC.DTS-HD.MA.5.1-EPSiLON.mkv
  4. Format : Matroska
  5. Format version : Version 4
  6. File size : 8.43 GiB
  7. Duration : 35 min 50 s
  8. Overall bit rate mode : Variable
  9. Overall bit rate : 33.7 Mb/s
  10. Movie name : Cobra Kai - S02E01 - Mercy (Part 2)
  11. Track name/Position : 1
  12. Track name/Total : 10
  13. Encoded date : UTC 2020-12-19 14:22:42
  14. Writing application : mkvmerge v51.0.0 ('I Wish') 64-bit
  15. Writing library : libebml v1.4.0 + libmatroska v1.6.2
  16. IMDB : tt8399416
  17. TMDB : tv/77169
  18. TVDB : 332858
  19. Video
  20. ID : 1
  21. Format : AVC
  22. Format/Info : Advanced Video Codec
  23. Format profile : [email protected]
  24. Format settings : CABAC / 4 Ref Frames
  25. Format settings, CABAC : Yes
  26. Format settings, Reference frames : 4 frames
  27. Codec ID : V_MPEG4/ISO/AVC
  28. Duration : 35 min 50 s
  29. Bit rate mode : Variable
  30. Bit rate : 31.8 Mb/s
  31. Maximum bit rate : 36.0 Mb/s
  32. Width : 1 920 pixels
  33. Height : 1 080 pixels
  34. Display aspect ratio : 16:9
  35. Frame rate mode : Constant
  36. Frame rate : 23.976 (24000/1001) FPS
  37. Standard : Component
  38. Color space : YUV
  39. Chroma subsampling : 4:2:0
  40. Bit depth : 8 bits
  41. Scan type : Progressive
  42. Bits/(Pixel*Frame) : 0.640
  43. Stream size : 7.97 GiB (95%)
  44. Title : MPEG-4 AVC Video / 31839 kbps / 1080p / 23.976 fps / 16:9 / High Profile 4.1
  45. Writing library : x264 core 155
  46. Language : English
  47. Default : Yes
  48. Forced : No
  49. Color range : Limited
  50. Color primaries : BT.709
  51. Transfer characteristics : BT.709
  52. Matrix coefficients : BT.709
  53. Audio
  54. ID : 2
  55. Format : DTS XLL
  56. Format/Info : Digital Theater Systems
  57. Commercial name : DTS-HD Master Audio
  58. Codec ID : A_DTS
  59. Duration : 35 min 50 s
  60. Bit rate mode : Variable
  61. Bit rate : 1 773 kb/s
  62. Channel(s) : 6 channels
  63. Channel layout : C L R Ls Rs LFE
  64. Sampling rate : 48.0 kHz
  65. Frame rate : 93.750 FPS (512 SPF)
  66. Bit depth : 16 bits
  67. Compression mode : Lossless
  68. Stream size : 455 MiB (5%)
  69. Title : DTS-HD Master Audio / 5.1 / 48 kHz / 1773 kbps / 16-bit
  70. Language : English
  71. Default : Yes
  72. Forced : No
  73. Text #1
  74. ID : 3
  75. Format : UTF-8
  76. Codec ID : S_TEXT/UTF8
  77. Codec ID/Info : UTF-8 Plain Text
  78. Duration : 3 s 337 ms
  79. Bit rate : 143 b/s
  80. Count of elements : 2
  81. Stream size : 60.0 Bytes (0%)
  82. Title : Forced
  83. Language : English
  84. Default : No
  85. Forced : Yes
  86. Text #2
  87. ID : 4
  88. Format : UTF-8
  89. Codec ID : S_TEXT/UTF8
  90. Codec ID/Info : UTF-8 Plain Text
  91. Duration : 33 min 45 s
  92. Bit rate : 77 b/s
  93. Count of elements : 620
  94. Stream size : 19.0 KiB (0%)
  95. Title : SDH
  96. Language : English
  97. Default : No
  98. Forced : No
  99. Text #3
  100. ID : 5
  101. Format : UTF-8
  102. Codec ID : S_TEXT/UTF8
  103. Codec ID/Info : UTF-8 Plain Text
  104. Duration : 34 min 28 s
  105. Bit rate : 107 b/s
  106. Count of elements : 540
  107. Stream size : 27.1 KiB (0%)
  108. Language : Arabic
  109. Default : No
  110. Forced : No
  111. Text #4
  112. ID : 6
  113. Format : UTF-8
  114. Codec ID : S_TEXT/UTF8
  115. Codec ID/Info : UTF-8 Plain Text
  116. Duration : 34 min 28 s
  117. Bit rate : 57 b/s
  118. Count of elements : 546
  119. Stream size : 14.6 KiB (0%)
  120. Title : Simplified
  121. Language : Chinese
  122. Default : No
  123. Forced : No
  124. Text #5
  125. ID : 7
  126. Format : UTF-8
  127. Codec ID : S_TEXT/UTF8
  128. Codec ID/Info : UTF-8 Plain Text
  129. Duration : 34 min 28 s
  130. Bit rate : 56 b/s
  131. Count of elements : 545
  132. Stream size : 14.1 KiB (0%)
  133. Title : Traditional
  134. Language : Chinese
  135. Default : No
  136. Forced : No
  137. Text #6
  138. ID : 8
  139. Format : UTF-8
  140. Codec ID : S_TEXT/UTF8
  141. Codec ID/Info : UTF-8 Plain Text
  142. Duration : 34 min 28 s
  143. Bit rate : 55 b/s
  144. Count of elements : 500
  145. Stream size : 13.9 KiB (0%)
  146. Language : Croatian
  147. Default : No
  148. Forced : No
  149. Text #7
  150. ID : 9
  151. Format : UTF-8
  152. Codec ID : S_TEXT/UTF8
  153. Codec ID/Info : UTF-8 Plain Text
  154. Duration : 34 min 28 s
  155. Bit rate : 55 b/s
  156. Count of elements : 528
  157. Stream size : 14.1 KiB (0%)
  158. Language : Czech
  159. Default : No
  160. Forced : No
  161. Text #8
  162. ID : 10
  163. Format : UTF-8
  164. Codec ID : S_TEXT/UTF8
  165. Codec ID/Info : UTF-8 Plain Text
  166. Duration : 34 min 31 s
  167. Bit rate : 56 b/s
  168. Count of elements : 499
  169. Stream size : 14.2 KiB (0%)
  170. Language : Danish
  171. Default : No
  172. Forced : No
  173. Text #9
  174. ID : 11
  175. Format : UTF-8
  176. Codec ID : S_TEXT/UTF8
  177. Codec ID/Info : UTF-8 Plain Text
  178. Duration : 34 min 29 s
  179. Bit rate : 56 b/s
  180. Count of elements : 453
  181. Stream size : 14.3 KiB (0%)
  182. Language : Dutch
  183. Default : No
  184. Forced : No
  185. Text #10
  186. ID : 12
  187. Format : UTF-8
  188. Codec ID : S_TEXT/UTF8
  189. Codec ID/Info : UTF-8 Plain Text
  190. Duration : 34 min 28 s
  191. Bit rate : 52 b/s
  192. Count of elements : 480
  193. Stream size : 13.3 KiB (0%)
  194. Language : Finnish
  195. Default : No
  196. Forced : No
  197. Text #11
  198. ID : 13
  199. Format : UTF-8
  200. Codec ID : S_TEXT/UTF8
  201. Codec ID/Info : UTF-8 Plain Text
  202. Duration : 34 min 28 s
  203. Bit rate : 57 b/s
  204. Count of elements : 510
  205. Stream size : 14.4 KiB (0%)
  206. Language : French
  207. Default : No
  208. Forced : No
  209. Text #12
  210. ID : 14
  211. Format : UTF-8
  212. Codec ID : S_TEXT/UTF8
  213. Codec ID/Info : UTF-8 Plain Text
  214. Duration : 34 min 28 s
  215. Bit rate : 59 b/s
  216. Count of elements : 487
  217. Stream size : 15.1 KiB (0%)
  218. Language : German
  219. Default : No
  220. Forced : No
  221. Text #13
  222. ID : 15
  223. Format : PGS
  224. Codec ID : S_HDMV/PGS
  225. Codec ID/Info : Picture based subtitle format used on BDs/HD-DVDs
  226. Duration : 35 min 18 s
  227. Bit rate : 36.2 kb/s
  228. Count of elements : 1094
  229. Stream size : 9.13 MiB (0%)
  230. Title : PGS
  231. Language : German
  232. Default : No
  233. Forced : No
  234. Text #14
  235. ID : 16
  236. Format : UTF-8
  237. Codec ID : S_TEXT/UTF8
  238. Codec ID/Info : UTF-8 Plain Text
  239. Duration : 34 min 28 s
  240. Bit rate : 102 b/s
  241. Count of elements : 503
  242. Stream size : 25.8 KiB (0%)
  243. Language : Greek
  244. Default : No
  245. Forced : No
  246. Text #15
  247. ID : 17
  248. Format : UTF-8
  249. Codec ID : S_TEXT/UTF8
  250. Codec ID/Info : UTF-8 Plain Text
  251. Duration : 34 min 29 s
  252. Bit rate : 100 b/s
  253. Count of elements : 500
  254. Stream size : 25.3 KiB (0%)
  255. Language : Hebrew
  256. Default : No
  257. Forced : No
  258. Text #16
  259. ID : 18
  260. Format : UTF-8
  261. Codec ID : S_TEXT/UTF8
  262. Codec ID/Info : UTF-8 Plain Text
  263. Duration : 34 min 28 s
  264. Bit rate : 61 b/s
  265. Count of elements : 501
  266. Stream size : 15.5 KiB (0%)
  267. Language : Hungarian
  268. Default : No
  269. Forced : No
  270. Text #17
  271. ID : 19
  272. Format : UTF-8
  273. Codec ID : S_TEXT/UTF8
  274. Codec ID/Info : UTF-8 Plain Text
  275. Duration : 34 min 28 s
  276. Bit rate : 57 b/s
  277. Count of elements : 528
  278. Stream size : 14.5 KiB (0%)
  279. Language : Indonesian
  280. Default : No
  281. Forced : No
  282. Text #18
  283. ID : 20
  284. Format : UTF-8
  285. Codec ID : S_TEXT/UTF8
  286. Codec ID/Info : UTF-8 Plain Text
  287. Duration : 34 min 28 s
  288. Bit rate : 53 b/s
  289. Count of elements : 516
  290. Stream size : 13.6 KiB (0%)
  291. Language : Italian
  292. Default : No
  293. Forced : No
  294. Text #19
  295. ID : 21
  296. Format : UTF-8
  297. Codec ID : S_TEXT/UTF8
  298. Codec ID/Info : UTF-8 Plain Text
  299. Duration : 34 min 29 s
  300. Bit rate : 48 b/s
  301. Count of elements : 511
  302. Stream size : 12.3 KiB (0%)
  303. Language : Japanese
  304. Default : No
  305. Forced : No
  306. Text #20
  307. ID : 22
  308. Format : UTF-8
  309. Codec ID : S_TEXT/UTF8
  310. Codec ID/Info : UTF-8 Plain Text
  311. Duration : 34 min 28 s
  312. Bit rate : 71 b/s
  313. Count of elements : 539
  314. Stream size : 18.1 KiB (0%)
  315. Language : Korean
  316. Default : No
  317. Forced : No
  318. Text #21
  319. ID : 23
  320. Format : UTF-8
  321. Codec ID : S_TEXT/UTF8
  322. Codec ID/Info : UTF-8 Plain Text
  323. Duration : 34 min 28 s
  324. Bit rate : 55 b/s
  325. Count of elements : 501
  326. Stream size : 14.0 KiB (0%)
  327. Language : Malay
  328. Default : No
  329. Forced : No
  330. Text #22
  331. ID : 24
  332. Format : UTF-8
  333. Codec ID : S_TEXT/UTF8
  334. Codec ID/Info : UTF-8 Plain Text
  335. Duration : 34 min 29 s
  336. Bit rate : 56 b/s
  337. Count of elements : 486
  338. Stream size : 14.2 KiB (0%)
  339. Language : Norwegian Bokmal
  340. Default : No
  341. Forced : No
  342. Text #23
  343. ID : 25
  344. Format : UTF-8
  345. Codec ID : S_TEXT/UTF8
  346. Codec ID/Info : UTF-8 Plain Text
  347. Duration : 34 min 28 s
  348. Bit rate : 55 b/s
  349. Count of elements : 523
  350. Stream size : 14.1 KiB (0%)
  351. Language : Polish
  352. Default : No
  353. Forced : No
  354. Text #24
  355. ID : 26
  356. Format : UTF-8
  357. Codec ID : S_TEXT/UTF8
  358. Codec ID/Info : UTF-8 Plain Text
  359. Duration : 34 min 28 s
  360. Bit rate : 62 b/s
  361. Count of elements : 527
  362. Stream size : 15.7 KiB (0%)
  363. Language : Portuguese
  364. Default : No
  365. Forced : No
  366. Text #25
  367. ID : 27
  368. Format : UTF-8
  369. Codec ID : S_TEXT/UTF8
  370. Codec ID/Info : UTF-8 Plain Text
  371. Duration : 34 min 28 s
  372. Bit rate : 55 b/s
  373. Count of elements : 495
  374. Stream size : 14.1 KiB (0%)
  375. Title : Brazilian
  376. Language : Portuguese
  377. Default : No
  378. Forced : No
  379. Text #26
  380. ID : 28
  381. Format : UTF-8
  382. Codec ID : S_TEXT/UTF8
  383. Codec ID/Info : UTF-8 Plain Text
  384. Duration : 34 min 28 s
  385. Bit rate : 56 b/s
  386. Count of elements : 523
  387. Stream size : 14.2 KiB (0%)
  388. Language : Romanian
  389. Default : No
  390. Forced : No
  391. Text #27
  392. ID : 29
  393. Format : UTF-8
  394. Codec ID : S_TEXT/UTF8
  395. Codec ID/Info : UTF-8 Plain Text
  396. Duration : 34 min 32 s
  397. Bit rate : 95 b/s
  398. Count of elements : 499
  399. Stream size : 24.1 KiB (0%)
  400. Language : Russian
  401. Default : No
  402. Forced : No
  403. Text #28
  404. ID : 30
  405. Format : UTF-8
  406. Codec ID : S_TEXT/UTF8
  407. Codec ID/Info : UTF-8 Plain Text
  408. Duration : 34 min 28 s
  409. Bit rate : 56 b/s
  410. Count of elements : 509
  411. Stream size : 14.2 KiB (0%)
  412. Title : Castilian
  413. Language : Spanish
  414. Default : No
  415. Forced : No
  416. Text #29
  417. ID : 31
  418. Format : UTF-8
  419. Codec ID : S_TEXT/UTF8
  420. Codec ID/Info : UTF-8 Plain Text
  421. Duration : 34 min 28 s
  422. Bit rate : 54 b/s
  423. Count of elements : 502
  424. Stream size : 13.7 KiB (0%)
  425. Title : Latin American
  426. Language : Spanish
  427. Default : No
  428. Forced : No
  429. Text #30
  430. ID : 32
  431. Format : UTF-8
  432. Codec ID : S_TEXT/UTF8
  433. Codec ID/Info : UTF-8 Plain Text
  434. Duration : 34 min 28 s
  435. Bit rate : 57 b/s
  436. Count of elements : 474
  437. Stream size : 14.5 KiB (0%)
  438. Language : Swedish
  439. Default : No
  440. Forced : No
  441. Text #31
  442. ID : 33
  443. Format : UTF-8
  444. Codec ID : S_TEXT/UTF8
  445. Codec ID/Info : UTF-8 Plain Text
  446. Duration : 34 min 28 s
  447. Bit rate : 157 b/s
  448. Count of elements : 545
  449. Stream size : 39.8 KiB (0%)
  450. Language : Thai
  451. Default : No
  452. Forced : No
  453. Text #32
  454. ID : 34
  455. Format : UTF-8
  456. Codec ID : S_TEXT/UTF8
  457. Codec ID/Info : UTF-8 Plain Text
  458. Duration : 34 min 28 s
  459. Bit rate : 62 b/s
  460. Count of elements : 489
  461. Stream size : 15.7 KiB (0%)
  462. Language : Turkish
  463. Default : No
  464. Forced : No
  465. Text #33
  466. ID : 35
  467. Format : UTF-8
  468. Codec ID : S_TEXT/UTF8
  469. Codec ID/Info : UTF-8 Plain Text
  470. Duration : 34 min 28 s
  471. Bit rate : 71 b/s
  472. Count of elements : 524
  473. Stream size : 18.1 KiB (0%)
  474. Language : Vietnamese
  475. Default : No
  476. Forced : No
  477. Menu
  478. 00:00:00.000 : en:Chapter 1
  479. 00:07:04.090 : en:Chapter 2
  480. 00:14:17.190 : en:Chapter 3
  481. 00:21:33.334 : en:Chapter 4
  482. 00:28:42.346 : en:Chapter 5
Comments powered by Disqus