1. General
  2. Unique ID : 253387056272556281148976111442349019149 (0xBEA0926951BD9917B81F6939B5D8500D)
  3. Complete name : The.Hunger.Games.Mockingjay.Part.1.2014.JPN.BluRay.Remux.1080p.AVC.Atmos.7.1-HiFi.mkv
  4. Format : Matroska
  5. Format version : Version 4
  6. File size : 30.8 GiB
  7. Duration : 2 h 2 min
  8. Overall bit rate mode : Variable
  9. Overall bit rate : 35.9 Mb/s
  10. Movie name : The.Hunger.Games.Mockingjay.Part.1.2014.JPN.BluRay.Remux.1080p.AVC.Atmos.7.1-HiFi
  11. Encoded date : UTC 2015-12-09 18:44:27
  12. Writing application : mkvmerge v8.6.1 ('Flying') 64bit
  13. Writing library : libebml v1.3.3 + libmatroska v1.4.4
  14. Video
  15. ID : 1
  16. Format : AVC
  17. Format/Info : Advanced Video Codec
  18. Format profile : [email protected]
  19. Format settings : CABAC / 4 Ref Frames
  20. Format settings, CABAC : Yes
  21. Format settings, Reference frames : 4 frames
  22. Codec ID : V_MPEG4/ISO/AVC
  23. Duration : 2 h 2 min
  24. Bit rate mode : Variable
  25. Maximum bit rate : 32.0 Mb/s
  26. Width : 1 920 pixels
  27. Height : 1 080 pixels
  28. Display aspect ratio : 16:9
  29. Frame rate mode : Constant
  30. Frame rate : 23.976 (24000/1001) FPS
  31. Color space : YUV
  32. Chroma subsampling : 4:2:0
  33. Bit depth : 8 bits
  34. Scan type : Progressive
  35. Title : MPEG-4 AVC Video / 30170 kbps / 1080p / 23.976 fps / 16:9 / High Profile 4.1
  36. Default : Yes
  37. Forced : No
  38. Audio #1
  39. ID : 2
  40. Format : MLP FBA 16-ch
  41. Format/Info : Meridian Lossless Packing FBA with 16-channel presentation
  42. Commercial name : Dolby TrueHD with Dolby Atmos
  43. Codec ID : A_TRUEHD
  44. Duration : 2 h 2 min
  45. Bit rate mode : Variable
  46. Maximum bit rate : 8 085 kb/s
  47. Channel(s) : 8 channels
  48. Channel layout : L R C LFE Ls Rs Lb Rb
  49. Sampling rate : 48.0 kHz
  50. Frame rate : 1 200.000 FPS (40 SPF)
  51. Compression mode : Lossless
  52. Title : Dolby Atmos Audio / 7.1 / 48 kHz / 4794 kbps / 24-bit
  53. Language : English
  54. Default : Yes
  55. Forced : No
  56. Number of dynamic objects : 11
  57. Bed channel count : 1 channel
  58. Bed channel configuration : LFE
  59. Audio #2
  60. ID : 3
  61. Format : AC-3
  62. Format/Info : Audio Coding 3
  63. Commercial name : Dolby Digital
  64. Codec ID : A_AC3
  65. Duration : 2 h 2 min
  66. Bit rate mode : Constant
  67. Bit rate : 640 kb/s
  68. Channel(s) : 6 channels
  69. Channel layout : L R C LFE Ls Rs
  70. Sampling rate : 48.0 kHz
  71. Frame rate : 31.250 FPS (1536 SPF)
  72. Compression mode : Lossy
  73. Stream size : 563 MiB (2%)
  74. Title : Compatibility Track - Dolby Digital Audio / 5.1 / 48 kHz / 640 kbps
  75. Language : English
  76. Service kind : Complete Main
  77. Default : No
  78. Forced : No
  79. Audio #3
  80. ID : 4
  81. Format : AC-3
  82. Format/Info : Audio Coding 3
  83. Commercial name : Dolby Digital
  84. Codec ID : A_AC3
  85. Duration : 2 h 2 min
  86. Bit rate mode : Constant
  87. Bit rate : 192 kb/s
  88. Channel(s) : 2 channels
  89. Channel layout : L R
  90. Sampling rate : 48.0 kHz
  91. Frame rate : 31.250 FPS (1536 SPF)
  92. Compression mode : Lossy
  93. Stream size : 169 MiB (1%)
  94. Title : Commentary with Director Francis Lawrence and Producer Nina Jacobson - Dolby Digital Audio / 2.0 / 48 kHz / 192 kbps
  95. Language : English
  96. Service kind : Complete Main
  97. Default : No
  98. Forced : No
  99. Text #1
  100. ID : 5
  101. Format : PGS
  102. Muxing mode : zlib
  103. Codec ID : S_HDMV/PGS
  104. Codec ID/Info : Picture based subtitle format used on BDs/HD-DVDs
  105. Language : English
  106. Default : No
  107. Forced : No
  108. Text #2
  109. ID : 6
  110. Format : PGS
  111. Muxing mode : zlib
  112. Codec ID : S_HDMV/PGS
  113. Codec ID/Info : Picture based subtitle format used on BDs/HD-DVDs
  114. Title : SDH
  115. Language : English
  116. Default : No
  117. Forced : No
  118. Text #3
  119. ID : 7
  120. Format : PGS
  121. Muxing mode : zlib
  122. Codec ID : S_HDMV/PGS
  123. Codec ID/Info : Picture based subtitle format used on BDs/HD-DVDs
  124. Language : Dutch
  125. Default : No
  126. Forced : No
  127. Text #4
  128. ID : 8
  129. Format : PGS
  130. Muxing mode : zlib
  131. Codec ID : S_HDMV/PGS
  132. Codec ID/Info : Picture based subtitle format used on BDs/HD-DVDs
  133. Language : French
  134. Default : No
  135. Forced : No
  136. Text #5
  137. ID : 9
  138. Format : PGS
  139. Muxing mode : zlib
  140. Codec ID : S_HDMV/PGS
  141. Codec ID/Info : Picture based subtitle format used on BDs/HD-DVDs
  142. Language : Japanese
  143. Default : No
  144. Forced : No
  145. Text #6
  146. ID : 10
  147. Format : PGS
  148. Muxing mode : zlib
  149. Codec ID : S_HDMV/PGS
  150. Codec ID/Info : Picture based subtitle format used on BDs/HD-DVDs
  151. Language : Japanese
  152. Default : No
  153. Forced : No
  154. Text #7
  155. ID : 11
  156. Format : PGS
  157. Muxing mode : zlib
  158. Codec ID : S_HDMV/PGS
  159. Codec ID/Info : Picture based subtitle format used on BDs/HD-DVDs
  160. Language : Spanish
  161. Default : No
  162. Forced : No
  163. Menu
  164. 00:00:00.000 : en:Chapter 1
  165. 00:08:44.649 : en:Chapter 2
  166. 00:15:03.820 : en:Chapter 3
  167. 00:22:57.084 : en:Chapter 4
  168. 00:29:53.458 : en:Chapter 5
  169. 00:36:46.746 : en:Chapter 6
  170. 00:42:35.970 : en:Chapter 7
  171. 00:50:34.990 : en:Chapter 8
  172. 00:56:32.014 : en:Chapter 9
  173. 01:02:15.899 : en:Chapter 10
  174. 01:09:28.831 : en:Chapter 11
  175. 01:17:38.445 : en:Chapter 12
  176. 01:25:11.106 : en:Chapter 13
  177. 01:34:21.948 : en:Chapter 14
  178. 01:41:34.797 : en:Chapter 15
  179. 01:47:21.101 : en:Chapter 16
Comments powered by Disqus