1. General
  2. Unique ID : 132953196142230635088860879782004905740 (0x6405DAAA92952C368A36A044D7F7D70C)
  3. Complete name : Ip.Man.4.The.Finale.2019.UHD.BluRay.2160p.TrueHD.Atmos.7.1.DV.HEVC.REMUX-FraMeSToR.mkv
  4. Format : Matroska
  5. Format version : Version 4
  6. File size : 44.8 GiB
  7. Duration : 1 h 45 min
  8. Overall bit rate mode : Variable
  9. Overall bit rate : 61.0 Mb/s
  10. Movie name : Ip Man 4: The Finale 4K
  11. Encoded date : UTC 2021-01-06 13:20:38
  12. Writing application : mkvmerge v52.0.0 ('Secret For The Mad') 64-bit
  13. Writing library : libebml v1.4.1 + libmatroska v1.6.2
  14. IMDB : tt2076298
  15. TMDB : movie/449924
  16. Video
  17. ID : 1
  18. ID in the original source medium : 4113 (0x1011)
  19. Format : HEVC
  20. Format/Info : High Efficiency Video Coding
  21. Format profile : Main [email protected]@High
  22. HDR format : Dolby Vision, Version 1.0, dvhe.07.06, BL+EL+RPU, Blu-ray compatible / SMPTE ST 2086, HDR10 compatible
  23. Codec ID : V_MPEGH/ISO/HEVC
  24. Duration : 1 h 45 min
  25. Bit rate : 55.4 Mb/s
  26. Width : 3 840 pixels
  27. Height : 2 160 pixels
  28. Display aspect ratio : 16:9
  29. Frame rate mode : Constant
  30. Frame rate : 24.000 FPS
  31. Color space : YUV
  32. Chroma subsampling : 4:2:0 (Type 2)
  33. Bit depth : 10 bits
  34. Bits/(Pixel*Frame) : 0.279
  35. Stream size : 40.8 GiB (91%)
  36. Default : Yes
  37. Forced : No
  38. Color range : Limited
  39. Color primaries : BT.2020
  40. Transfer characteristics : PQ
  41. Matrix coefficients : BT.2020 non-constant
  42. Mastering display color primaries : BT.2020
  43. Mastering display luminance : min: 0.0001 cd/m2, max: 1000 cd/m2
  44. Maximum Content Light Level : 630 cd/m2
  45. Maximum Frame-Average Light Level : 460 cd/m2
  46. Original source medium : Blu-ray
  47. Audio #1
  48. ID : 2
  49. Format : MLP FBA 16-ch
  50. Format/Info : Meridian Lossless Packing FBA with 16-channel presentation
  51. Commercial name : Dolby TrueHD with Dolby Atmos
  52. Codec ID : A_TRUEHD
  53. Duration : 1 h 45 min
  54. Bit rate mode : Variable
  55. Bit rate : 4 697 kb/s
  56. Maximum bit rate : 7 896 kb/s
  57. Channel(s) : 8 channels
  58. Channel layout : L R C LFE Ls Rs Lb Rb
  59. Sampling rate : 48.0 kHz
  60. Frame rate : 1 200.000 FPS (40 SPF)
  61. Compression mode : Lossless
  62. Stream size : 3.45 GiB (8%)
  63. Title : TrueHD Atmos 7.1
  64. Language : Chinese
  65. Default : Yes
  66. Forced : No
  67. Number of dynamic objects : 11
  68. Bed channel count : 1 channel
  69. Bed channel configuration : LFE
  70. Audio #2
  71. ID : 3
  72. Format : AC-3
  73. Format/Info : Audio Coding 3
  74. Commercial name : Dolby Digital
  75. Codec ID : A_AC3
  76. Duration : 1 h 45 min
  77. Bit rate mode : Constant
  78. Bit rate : 640 kb/s
  79. Channel(s) : 6 channels
  80. Channel layout : L R C LFE Ls Rs
  81. Sampling rate : 48.0 kHz
  82. Frame rate : 31.250 FPS (1536 SPF)
  83. Compression mode : Lossy
  84. Stream size : 482 MiB (1%)
  85. Title : AC-3 5.1-EX
  86. Language : Chinese
  87. Service kind : Complete Main
  88. Default : No
  89. Forced : No
  90. Text #1
  91. ID : 4
  92. Format : PGS
  93. Codec ID : S_HDMV/PGS
  94. Codec ID/Info : Picture based subtitle format used on BDs/HD-DVDs
  95. Duration : 1 h 40 min
  96. Bit rate : 20.3 kb/s
  97. Count of elements : 1634
  98. Stream size : 14.6 MiB (0%)
  99. Title : English (Non-English parts)
  100. Language : English
  101. Default : Yes
  102. Forced : No
  103. Text #2
  104. ID : 5
  105. Format : PGS
  106. Codec ID : S_HDMV/PGS
  107. Codec ID/Info : Picture based subtitle format used on BDs/HD-DVDs
  108. Duration : 1 h 38 min
  109. Bit rate : 28.3 kb/s
  110. Count of elements : 2706
  111. Stream size : 19.9 MiB (0%)
  112. Title : Chinese (Simplified)
  113. Language : Chinese
  114. Default : No
  115. Forced : No
  116. Text #3
  117. ID : 6
  118. Format : PGS
  119. Codec ID : S_HDMV/PGS
  120. Codec ID/Info : Picture based subtitle format used on BDs/HD-DVDs
  121. Duration : 1 h 38 min
  122. Bit rate : 30.2 kb/s
  123. Count of elements : 2706
  124. Stream size : 21.2 MiB (0%)
  125. Title : Chinese (Traditional)
  126. Language : Chinese
  127. Default : No
  128. Forced : No
  129. Text #4
  130. ID : 7
  131. Format : PGS
  132. Codec ID : S_HDMV/PGS
  133. Codec ID/Info : Picture based subtitle format used on BDs/HD-DVDs
  134. Duration : 1 h 40 min
  135. Bit rate : 30.3 kb/s
  136. Count of elements : 2060
  137. Stream size : 21.8 MiB (0%)
  138. Title : French
  139. Language : French
  140. Default : No
  141. Forced : No
  142. Text #5
  143. ID : 8
  144. Format : PGS
  145. Codec ID : S_HDMV/PGS
  146. Codec ID/Info : Picture based subtitle format used on BDs/HD-DVDs
  147. Duration : 1 h 38 min
  148. Bit rate : 25.1 kb/s
  149. Count of elements : 1724
  150. Stream size : 17.7 MiB (0%)
  151. Title : German
  152. Language : German
  153. Default : No
  154. Forced : No
  155. Menu
  156. 00:00:00.000 : en:Chapter 1
  157. 00:11:01.208 : en:Chapter 2
  158. 00:21:05.417 : en:Chapter 3
  159. 00:31:38.833 : en:Chapter 4
  160. 00:40:56.542 : en:Chapter 5
  161. 00:50:02.458 : en:Chapter 6
  162. 00:58:48.125 : en:Chapter 7
  163. 01:10:40.292 : en:Chapter 8
  164. 01:18:20.083 : en:Chapter 9
  165. 01:29:57.875 : en:Chapter 10
  166. 01:41:41.375 : en:Chapter 11
Comments powered by Disqus