1. General
  2. Unique ID : 288725892675288746668532765706532991694 (0xD9369590E7B9126496F5506FBD98B2CE)
  3. Complete name : unfired-sieleben.remastered-x265.mkv
  4. Format : Matroska
  5. Format version : Version 2
  6. File size : 5.73 GiB
  7. Duration : 1 h 34 min
  8. Overall bit rate : 8 697 kb/s
  9. Encoded date : UTC 2018-11-01 01:32:01
  10. Writing application : mkvmerge v24.0.0 ('Beyond The Pale') 64-bit
  11. Writing library : libebml v1.3.6 + libmatroska v1.4.9
  12. Video
  13. ID : 1
  14. Format : HEVC
  15. Format/Info : High Efficiency Video Coding
  16. Format profile : [email protected]@Main
  17. Codec ID : V_MPEGH/ISO/HEVC
  18. Duration : 1 h 34 min
  19. Bit rate : 5 671 kb/s
  20. Width : 1 920 pixels
  21. Height : 816 pixels
  22. Display aspect ratio : 2.35:1
  23. Frame rate mode : Constant
  24. Frame rate : 24.000 FPS
  25. Color space : YUV
  26. Chroma subsampling : 4:2:0
  27. Bit depth : 8 bits
  28. Bits/(Pixel*Frame) : 0.151
  29. Stream size : 3.73 GiB (65%)
  30. Writing library : x265 2.8+1-478bfe2b7673:[Windows][GCC 7.3.0][64 bit] 8bit+10bit+12bit
  31. Encoding settings : cpuid=1111039 / frame-threads=16 / numa-pools=16 / wpp / no-pmode / no-pme / no-psnr / no-ssim / log-level=2 / input-csp=1 / input-res=1920x816 / interlace=0 / total-frames=135788 / level-idc=0 / high-tier=1 / uhd-bd=0 / ref=4 / no-allow-non-conformance / no-repeat-headers / annexb / no-aud / no-hrd / info / hash=0 / no-temporal-layers / open-gop / min-keyint=24 / keyint=250 / gop-lookahead=0 / bframes=4 / b-adapt=2 / b-pyramid / bframe-bias=0 / rc-lookahead=25 / lookahead-slices=4 / scenecut=40 / radl=0 / no-intra-refresh / ctu=64 / min-cu-size=8 / rect / no-amp / max-tu-size=32 / tu-inter-depth=1 / tu-intra-depth=1 / limit-tu=0 / rdoq-level=2 / dynamic-rd=0.00 / no-ssim-rd / signhide / no-tskip / nr-intra=0 / nr-inter=0 / no-constrained-intra / strong-intra-smoothing / max-merge=3 / limit-refs=3 / limit-modes / me=3 / subme=3 / merange=57 / temporal-mvp / weightp / no-weightb / no-analyze-src-pics / deblock=0:0 / sao / no-sao-non-deblock / rd=4 / no-early-skip / rskip / no-fast-intra / no-tskip-fast / no-cu-lossless / no-b-intra / no-splitrd-skip / rdpenalty=0 / psy-rd=2.00 / psy-rdoq=1.00 / no-rd-refine / no-lossless / cbqpoffs=0 / crqpoffs=0 / rc=crf / crf=19.9 / qcomp=0.60 / qpstep=4 / stats-write=0 / stats-read=0 / ipratio=1.40 / pbratio=1.30 / aq-mode=1 / aq-strength=1.00 / cutree / zone-count=0 / no-strict-cbr / qg-size=32 / no-rc-grain / qpmax=69 / qpmin=0 / no-const-vbv / sar=1 / overscan=0 / videoformat=5 / range=0 / colorprim=2 / transfer=2 / colormatrix=2 / chromaloc=0 / display-window=0 / max-cll=0,0 / min-luma=0 / max-luma=255 / log2-max-poc-lsb=8 / vui-timing-info / vui-hrd-info / slices=1 / no-opt-qp-pps / no-opt-ref-list-length-pps / no-multi-pass-opt-rps / scenecut-bias=0.05 / no-opt-cu-delta-qp / no-aq-motion / no-hdr / no-hdr-opt / no-dhdr10-opt / no-idr-recovery-sei / analysis-reuse-level=5 / scale-factor=0 / refine-intra=0 / refine-inter=0 / refine-mv=0 / no-limit-sao / ctu-info=0 / no-lowpass-dct / refine-mv-type=0 / copy-pic=1 / max-ausize-factor=1.0 / no-dynamic-refine / no-single-sei
  32. Default : Yes
  33. Forced : No
  34. Audio #1
  35. ID : 2
  36. Format : DTS
  37. Format/Info : Digital Theater Systems
  38. Codec ID : A_DTS
  39. Duration : 1 h 34 min
  40. Bit rate mode : Constant
  41. Bit rate : 1 509 kb/s
  42. Channel(s) : 2 channels
  43. Channel layout : Lt Rt
  44. Sampling rate : 48.0 kHz
  45. Frame rate : 93.750 FPS (512 SPF)
  46. Bit depth : 24 bits
  47. Compression mode : Lossy
  48. Stream size : 1 018 MiB (17%)
  49. Language : German
  50. Default : Yes
  51. Forced : No
  52. Audio #2
  53. ID : 3
  54. Format : DTS
  55. Format/Info : Digital Theater Systems
  56. Codec ID : A_DTS
  57. Duration : 1 h 34 min
  58. Bit rate mode : Constant
  59. Bit rate : 1 509 kb/s
  60. Channel(s) : 6 channels
  61. Channel layout : C L R Ls Rs LFE
  62. Sampling rate : 48.0 kHz
  63. Frame rate : 93.750 FPS (512 SPF)
  64. Bit depth : 24 bits
  65. Compression mode : Lossy
  66. Stream size : 1 018 MiB (17%)
  67. Language : English
  68. Default : No
  69. Forced : No
  70. Text #1
  71. ID : 4
  72. Format : VobSub
  73. Muxing mode : zlib
  74. Codec ID : S_VOBSUB
  75. Codec ID/Info : Picture based subtitle format used on DVDs
  76. Duration : 1 h 30 min
  77. Bit rate : 4 384 b/s
  78. Count of elements : 632
  79. Stream size : 2.82 MiB (0%)
  80. Title : complete
  81. Language : German
  82. Default : No
  83. Forced : No
  84. Text #2
  85. ID : 5
  86. Format : VobSub
  87. Muxing mode : zlib
  88. Codec ID : S_VOBSUB
  89. Codec ID/Info : Picture based subtitle format used on DVDs
  90. Duration : 1 h 30 min
  91. Bit rate : 5 111 b/s
  92. Count of elements : 787
  93. Stream size : 3.30 MiB (0%)
  94. Title : complete
  95. Language : English
  96. Default : No
  97. Forced : No
  98. Menu
  99. 00:00:00.000 : en:Chapter 1
  100. 00:06:19.208 : en:Chapter 2
  101. 00:11:47.666 : en:Chapter 3
  102. 00:21:01.208 : en:Chapter 4
  103. 00:29:33.875 : en:Chapter 5
  104. 00:41:16.833 : en:Chapter 6
  105. 00:46:18.833 : en:Chapter 7
  106. 00:53:49.333 : en:Chapter 8
  107. 01:02:28.166 : en:Chapter 9
  108. 01:08:34.125 : en:Chapter 10
  109. 01:21:56.041 : en:Chapter 11
  110. 01:30:56.250 : en:Chapter 12
Comments powered by Disqus