1. General
  2. Unique ID : 18816040563082472277086883684354683629 (0xE27D66CA9092CD916E2F72086F0F2ED)
  3. Complete name : Star.Wars.The.Bad.Batch.S01E12.1080p.WEB.H264-EXPLOIT.mkv
  4. Format : Matroska
  5. Format version : Version 4
  6. File size : 1.06 GiB
  7. Duration : 25 min 34 s
  8. Overall bit rate mode : Variable
  9. Overall bit rate : 5 908 kb/s
  10. Encoded date : UTC 2021-07-16 07:16:05
  11. Writing application : mkvmerge v57.0.0 ('Till The End') 64-bit
  12. Writing library : libebml v1.4.2 + libmatroska v1.6.4
  13. Video
  14. ID : 1
  15. Format : AVC
  16. Format/Info : Advanced Video Codec
  17. Format profile : [email protected]
  18. Format settings : CABAC / 4 Ref Frames
  19. Format settings, CABAC : Yes
  20. Format settings, Reference frames : 4 frames
  21. Codec ID : V_MPEG4/ISO/AVC
  22. Duration : 25 min 34 s
  23. Bit rate mode : Variable
  24. Bit rate : 5 648 kb/s
  25. Maximum bit rate : 12.7 Mb/s
  26. Width : 1 920 pixels
  27. Height : 1 080 pixels
  28. Display aspect ratio : 16:9
  29. Frame rate mode : Constant
  30. Frame rate : 23.976 (24000/1001) FPS
  31. Color space : YUV
  32. Chroma subsampling : 4:2:0
  33. Bit depth : 8 bits
  34. Scan type : Progressive
  35. Bits/(Pixel*Frame) : 0.114
  36. Stream size : 1.01 GiB (96%)
  37. Default : Yes
  38. Forced : No
  39. Color range : Limited
  40. Color primaries : BT.709
  41. Transfer characteristics : BT.709
  42. Matrix coefficients : BT.709
  43. Audio
  44. ID : 2
  45. Format : E-AC-3
  46. Format/Info : Enhanced AC-3
  47. Commercial name : Dolby Digital Plus
  48. Codec ID : A_EAC3
  49. Duration : 25 min 34 s
  50. Bit rate mode : Constant
  51. Bit rate : 256 kb/s
  52. Channel(s) : 6 channels
  53. Channel layout : L R C LFE Ls Rs
  54. Sampling rate : 48.0 kHz
  55. Frame rate : 31.250 FPS (1536 SPF)
  56. Compression mode : Lossy
  57. Stream size : 46.8 MiB (4%)
  58. Title : English
  59. Language : English
  60. Service kind : Complete Main
  61. Default : No
  62. Forced : No
  63. Text #1
  64. ID : 3
  65. Format : UTF-8
  66. Codec ID : S_TEXT/UTF8
  67. Codec ID/Info : UTF-8 Plain Text
  68. Duration : 24 min 57 s
  69. Bit rate : 53 b/s
  70. Count of elements : 272
  71. Stream size : 9.75 KiB (0%)
  72. Title : Danish
  73. Language : Danish
  74. Default : No
  75. Forced : No
  76. Text #2
  77. ID : 4
  78. Format : UTF-8
  79. Codec ID : S_TEXT/UTF8
  80. Codec ID/Info : UTF-8 Plain Text
  81. Duration : 24 min 32 s
  82. Bit rate : 46 b/s
  83. Count of elements : 225
  84. Stream size : 8.44 KiB (0%)
  85. Title : Dutch
  86. Language : Dutch
  87. Default : No
  88. Forced : No
  89. Text #3
  90. ID : 5
  91. Format : UTF-8
  92. Codec ID : S_TEXT/UTF8
  93. Codec ID/Info : UTF-8 Plain Text
  94. Duration : 23 min 39 s
  95. Bit rate : 55 b/s
  96. Count of elements : 277
  97. Stream size : 9.60 KiB (0%)
  98. Title : English
  99. Language : English
  100. Default : No
  101. Forced : No
  102. Text #4
  103. ID : 6
  104. Format : UTF-8
  105. Codec ID : S_TEXT/UTF8
  106. Codec ID/Info : UTF-8 Plain Text
  107. Duration : 23 min 39 s
  108. Bit rate : 62 b/s
  109. Count of elements : 329
  110. Stream size : 10.9 KiB (0%)
  111. Title : English SDH
  112. Language : English
  113. Default : No
  114. Forced : No
  115. Text #5
  116. ID : 7
  117. Format : UTF-8
  118. Codec ID : S_TEXT/UTF8
  119. Codec ID/Info : UTF-8 Plain Text
  120. Duration : 24 min 32 s
  121. Bit rate : 48 b/s
  122. Count of elements : 261
  123. Stream size : 8.69 KiB (0%)
  124. Title : Finnish
  125. Language : Finnish
  126. Default : No
  127. Forced : No
  128. Text #6
  129. ID : 8
  130. Format : UTF-8
  131. Codec ID : S_TEXT/UTF8
  132. Codec ID/Info : UTF-8 Plain Text
  133. Duration : 24 min 32 s
  134. Bit rate : 54 b/s
  135. Count of elements : 270
  136. Stream size : 9.72 KiB (0%)
  137. Title : French
  138. Language : French
  139. Default : No
  140. Forced : No
  141. Text #7
  142. ID : 9
  143. Format : UTF-8
  144. Codec ID : S_TEXT/UTF8
  145. Codec ID/Info : UTF-8 Plain Text
  146. Duration : 24 min 32 s
  147. Bit rate : 54 b/s
  148. Count of elements : 259
  149. Stream size : 9.79 KiB (0%)
  150. Title : German
  151. Language : German
  152. Default : No
  153. Forced : No
  154. Text #8
  155. ID : 10
  156. Format : UTF-8
  157. Codec ID : S_TEXT/UTF8
  158. Codec ID/Info : UTF-8 Plain Text
  159. Duration : 24 min 32 s
  160. Bit rate : 53 b/s
  161. Count of elements : 255
  162. Stream size : 9.59 KiB (0%)
  163. Title : Italian
  164. Language : Italian
  165. Default : No
  166. Forced : No
  167. Text #9
  168. ID : 11
  169. Format : UTF-8
  170. Codec ID : S_TEXT/UTF8
  171. Codec ID/Info : UTF-8 Plain Text
  172. Duration : 24 min 57 s
  173. Bit rate : 53 b/s
  174. Count of elements : 272
  175. Stream size : 9.79 KiB (0%)
  176. Title : Norwegian
  177. Language : Norwegian
  178. Default : No
  179. Forced : No
  180. Text #10
  181. ID : 12
  182. Format : UTF-8
  183. Codec ID : S_TEXT/UTF8
  184. Codec ID/Info : UTF-8 Plain Text
  185. Duration : 25 min 8 s
  186. Bit rate : 51 b/s
  187. Count of elements : 272
  188. Stream size : 9.45 KiB (0%)
  189. Title : Polish
  190. Language : Polish
  191. Default : No
  192. Forced : No
  193. Text #11
  194. ID : 13
  195. Format : UTF-8
  196. Codec ID : S_TEXT/UTF8
  197. Codec ID/Info : UTF-8 Plain Text
  198. Duration : 24 min 57 s
  199. Bit rate : 54 b/s
  200. Count of elements : 271
  201. Stream size : 10.0 KiB (0%)
  202. Title : Portuguese
  203. Language : Portuguese
  204. Default : No
  205. Forced : No
  206. Text #12
  207. ID : 14
  208. Format : UTF-8
  209. Codec ID : S_TEXT/UTF8
  210. Codec ID/Info : UTF-8 Plain Text
  211. Duration : 24 min 32 s
  212. Bit rate : 55 b/s
  213. Count of elements : 264
  214. Stream size : 9.89 KiB (0%)
  215. Title : Brazilian Portuguese
  216. Language : Portuguese
  217. Default : No
  218. Forced : No
  219. Text #13
  220. ID : 15
  221. Format : UTF-8
  222. Codec ID : S_TEXT/UTF8
  223. Codec ID/Info : UTF-8 Plain Text
  224. Duration : 24 min 32 s
  225. Bit rate : 51 b/s
  226. Count of elements : 266
  227. Stream size : 9.24 KiB (0%)
  228. Title : Spanish
  229. Language : Spanish
  230. Default : No
  231. Forced : No
  232. Text #14
  233. ID : 16
  234. Format : UTF-8
  235. Codec ID : S_TEXT/UTF8
  236. Codec ID/Info : UTF-8 Plain Text
  237. Duration : 24 min 57 s
  238. Bit rate : 54 b/s
  239. Count of elements : 258
  240. Stream size : 9.88 KiB (0%)
  241. Title : European Spanish
  242. Language : Spanish
  243. Default : No
  244. Forced : No
  245. Text #15
  246. ID : 17
  247. Format : UTF-8
  248. Codec ID : S_TEXT/UTF8
  249. Codec ID/Info : UTF-8 Plain Text
  250. Duration : 24 min 57 s
  251. Bit rate : 53 b/s
  252. Count of elements : 272
  253. Stream size : 9.85 KiB (0%)
  254. Title : Swedish
  255. Language : Swedish
  256. Default : No
  257. Forced : No
Comments powered by Disqus