1. General
  2. Unique ID : 65801987280081621429310343633064878498 (0x31810074048873781898E13CD4D6E1A2)
  3. Complete name : Space.Jam.A.New.Legacy.2021.2160p.HMAX.WEB-DL.DDP.5.1.Atmos.DV.HEVC-FLUX.mkv
  4. Format : Matroska
  5. Format version : Version 4
  6. File size : 15.0 GiB
  7. Duration : 1 h 55 min
  8. Overall bit rate : 18.6 Mb/s
  9. Movie name : Space Jam A New Legacy (2021)
  10. Description : Welcome to the Jam! Basketball champion and global icon LeBron James goes on an epic adventure alongside timeless Tune Bugs Bunny in this animated/live-action transformational journey - a manic mashup of worlds that reveals just how far some parents will go to connect with their kids. When LeBron and his young son Dom are trapped in a digital space by a rogue A.I., LeBron must get them home safe by leading Bugs, Lola Bunny and the whole gang of notoriously undisciplined Looney Tunes to victory over the A.I.’s digitized champs: a powered-up roster of pros like you’ve never seen before. It’s Tunes vs. Goons in a high-stakes challenge that will redefine LeBron’s bond with his son and shine a light on the power of being yourself. Streaming through Aug. 15.
  11. Encoded date : UTC 2021-07-16 07:09:25
  12. Writing application : mkvmerge v59.0.0 ('Shining Star') 64-bit
  13. Writing library : libebml v1.4.2 + libmatroska v1.6.4
  14. IMDB : tt3554046
  15. TMDB : movie/379686
  16. Video
  17. ID : 1
  18. Format : HEVC
  19. Format/Info : High Efficiency Video Coding
  20. Format profile : Main [email protected]@Main
  21. HDR format : Dolby Vision, Version 1.0, dvhe.05.06, BL+RPU
  22. Codec ID : V_MPEGH/ISO/HEVC
  23. Duration : 1 h 55 min
  24. Bit rate : 17.8 Mb/s
  25. Width : 3 840 pixels
  26. Height : 2 160 pixels
  27. Display aspect ratio : 16:9
  28. Frame rate mode : Constant
  29. Frame rate : 23.976 (24000/1001) FPS
  30. Color space : YUV
  31. Chroma subsampling : 4:2:0
  32. Bit depth : 10 bits
  33. Bits/(Pixel*Frame) : 0.090
  34. Stream size : 14.4 GiB (96%)
  35. Writing library : x265 3.4hy:[Linux][GCC 7.5.0][64 bit] 10bit
  36. Encoding settings : cpuid=1111039 / frame-threads=6 / no-wpp / no-pmode / no-pme / no-psnr / no-ssim / log-level=2 / input-csp=1 / input-res=3840x2160 / interlace=0 / total-frames=0 / level-idc=0 / high-tier=1 / uhd-bd=0 / ref=4 / no-allow-non-conformance / repeat-headers / annexb / aud / hrd / info / hash=0 / no-temporal-layers / no-open-gop / min-keyint=96 / keyint=96 / gop-lookahead=0 / bframes=4 / b-adapt=2 / b-pyramid / bframe-bias=0 / rc-lookahead=25 / lookahead-slices=4 / scenecut=40 / hist-scenecut=0 / radl=0 / no-splice / no-intra-refresh / ctu=64 / min-cu-size=8 / rect / no-amp / max-tu-size=32 / tu-inter-depth=1 / tu-intra-depth=1 / limit-tu=0 / rdoq-level=2 / dynamic-rd=0.00 / no-ssim-rd / signhide / no-tskip / nr-intra=0 / nr-inter=0 / no-constrained-intra / strong-intra-smoothing / max-merge=3 / limit-refs=3 / limit-modes / me=3 / subme=3 / merange=57 / temporal-mvp / no-frame-dup / no-hme / weightp / no-weightb / no-analyze-src-pics / deblock=0:0 / sao / no-sao-non-deblock / rd=4 / selective-sao=4 / no-early-skip / rskip / no-fast-intra / no-tskip-fast / no-cu-lossless / no-b-intra / no-splitrd-skip / rdpenalty=0 / psy-rd=2.00 / psy-rdoq=1.00 / no-rd-refine / no-lossless / cbqpoffs=0 / crqpoffs=3 / rc=abr / bitrate=18000 / qcomp=0.60 / qpstep=4 / stats-write=0 / stats-read=2 / cplxblur=20.0 / qblur=0.5 / vbv-maxrate=24500 / vbv-bufsize=24500 / vbv-init=0.6 / vbv-end=0.6 / vbv-end-fr-adj=0.0 / ipratio=1.40 / pbratio=1.30 / aq-mode=2 / aq-strength=1.00 / cutree / zone-count=0 / no-strict-cbr / qg-size=32 / no-rc-grain / qpmax=69 / qpmin=0 / no-const-vbv / sar=1 / overscan=0 / videoformat=5 / range=1 / colorprim=2 / transfer=2 / colormatrix=2 / chromaloc=0 / display-window=0 / cll=0,0 / min-luma=0 / max-luma=1023 / log2-max-poc-lsb=8 / vui-timing-info / vui-hrd-info / no-concatenation / slices=1 / no-opt-qp-pps / no-opt-ref-list-length-pps / no-multi-pass-opt-rps / scenecut-bias=0.05 / hist-threshold=0.01 / no-opt-cu-delta-qp / no-aq-motion / no-hdr10 / no-hdr10-opt / no-dhdr10-opt / no-idr-recovery-sei / analysis-reuse-level=0 / analysis-save-reuse-level=0 / analysis-load-reuse-level=0 / scale-factor=0 / refine-intra=0 / refine-inter=0 / refine-mv=1 / refine-ctu-distortion=0 / no-limit-sao / ctu-info=0 / no-lowpass-dct / refine-analysis-type=0 / copy-pic=1 / max-ausize-factor=1.0 / no-dynamic-refine / no-single-sei / no-hevc-aq / no-svt / no-field / qp-adaptation-range=1.00 / no-scenecut-aware-qpconformance-window-offsets / right=0 / bottom=0 / decoder-max-rate=0
  37. Default : Yes
  38. Forced : No
  39. Color range : Full
  40. Audio
  41. ID : 2
  42. Format : E-AC-3 JOC
  43. Format/Info : Enhanced AC-3 with Joint Object Coding
  44. Commercial name : Dolby Digital Plus with Dolby Atmos
  45. Codec ID : A_EAC3
  46. Duration : 1 h 55 min
  47. Bit rate mode : Constant
  48. Bit rate : 768 kb/s
  49. Channel(s) : 6 channels
  50. Channel layout : L R C LFE Ls Rs
  51. Sampling rate : 48.0 kHz
  52. Frame rate : 31.250 FPS (1536 SPF)
  53. Compression mode : Lossy
  54. Stream size : 634 MiB (4%)
  55. Language : English
  56. Service kind : Complete Main
  57. Default : Yes
  58. Forced : No
  59. Complexity index : 16
  60. Number of dynamic objects : 15
  61. Bed channel count : 1 channel
  62. Bed channel configuration : LFE
  63. Text
  64. ID : 3
  65. Format : UTF-8
  66. Codec ID : S_TEXT/UTF8
  67. Codec ID/Info : UTF-8 Plain Text
  68. Duration : 1 h 55 min
  69. Bit rate : 95 b/s
  70. Count of elements : 2655
  71. Stream size : 80.2 KiB (0%)
  72. Title : English
  73. Language : English
  74. Default : No
  75. Forced : No
Comments powered by Disqus