1. General
  2. Unique ID : 335076182950401602066724411840087213238 (0xFC155350010B90B1496792094C8444B6)
  3. Complete name : unfired-drachenzaehmen3-x265.mkv
  4. Format : Matroska
  5. Format version : Version 2
  6. File size : 3.75 GiB
  7. Duration : 1 h 44 min
  8. Overall bit rate : 5 160 kb/s
  9. Encoded date : UTC 2019-05-17 20:33:51
  10. Writing application : mkvmerge v29.0.0 ('Like It Or Not') 64-bit
  11. Writing library : libebml v1.3.6 + libmatroska v1.4.9
  12. Video
  13. ID : 1
  14. Format : HEVC
  15. Format/Info : High Efficiency Video Coding
  16. Format profile : [email protected]@Main
  17. Codec ID : V_MPEGH/ISO/HEVC
  18. Duration : 1 h 44 min
  19. Bit rate : 3 193 kb/s
  20. Width : 1 920 pixels
  21. Height : 816 pixels
  22. Display aspect ratio : 2.35:1
  23. Frame rate mode : Constant
  24. Frame rate : 23.976 (24000/1001) FPS
  25. Color space : YUV
  26. Chroma subsampling : 4:2:0
  27. Bit depth : 8 bits
  28. Bits/(Pixel*Frame) : 0.085
  29. Stream size : 2.32 GiB (62%)
  30. Writing library : x265 2.9+1-169e76b6bbcc:[Windows][GCC 8.2.0][64 bit] 8bit+10bit+12bit
  31. Encoding settings : cpuid=1111039 / frame-threads=4 / numa-pools=16 / wpp / no-pmode / no-pme / no-psnr / no-ssim / log-level=2 / input-csp=1 / input-res=1920x816 / interlace=0 / total-frames=149756 / level-idc=0 / high-tier=1 / uhd-bd=0 / ref=4 / no-allow-non-conformance / no-repeat-headers / annexb / no-aud / no-hrd / info / hash=0 / no-temporal-layers / open-gop / min-keyint=23 / keyint=250 / gop-lookahead=0 / bframes=4 / b-adapt=2 / b-pyramid / bframe-bias=0 / rc-lookahead=25 / lookahead-slices=4 / scenecut=40 / radl=0 / no-intra-refresh / ctu=64 / min-cu-size=8 / rect / no-amp / max-tu-size=32 / tu-inter-depth=1 / tu-intra-depth=1 / limit-tu=0 / rdoq-level=2 / dynamic-rd=0.00 / no-ssim-rd / signhide / no-tskip / nr-intra=0 / nr-inter=0 / no-constrained-intra / strong-intra-smoothing / max-merge=3 / limit-refs=3 / limit-modes / me=3 / subme=3 / merange=57 / temporal-mvp / weightp / no-weightb / no-analyze-src-pics / deblock=0:0 / sao / no-sao-non-deblock / rd=4 / no-early-skip / rskip / no-fast-intra / no-tskip-fast / no-cu-lossless / no-b-intra / no-splitrd-skip / rdpenalty=0 / psy-rd=2.00 / psy-rdoq=1.00 / no-rd-refine / no-lossless / cbqpoffs=0 / crqpoffs=0 / rc=crf / crf=19.9 / qcomp=0.60 / qpstep=4 / stats-write=0 / stats-read=0 / ipratio=1.40 / pbratio=1.30 / aq-mode=1 / aq-strength=1.00 / cutree / zone-count=0 / no-strict-cbr / qg-size=32 / no-rc-grain / qpmax=69 / qpmin=0 / no-const-vbv / sar=1 / overscan=0 / videoformat=5 / range=0 / colorprim=2 / transfer=2 / colormatrix=2 / chromaloc=0 / display-window=0 / max-cll=0,0 / min-luma=0 / max-luma=255 / log2-max-poc-lsb=8 / vui-timing-info / vui-hrd-info / slices=1 / no-opt-qp-pps / no-opt-ref-list-length-pps / no-multi-pass-opt-rps / scenecut-bias=0.05 / no-opt-cu-delta-qp / no-aq-motion / no-hdr / no-hdr-opt / no-dhdr10-opt / no-idr-recovery-sei / analysis-reuse-level=5 / scale-factor=0 / refine-intra=0 / refine-inter=0 / refine-mv=0 / no-limit-sao / ctu-info=0 / no-lowpass-dct / refine-mv-type=0 / copy-pic=1 / max-ausize-factor=1.0 / no-dynamic-refine / no-single-sei
  32. Default : Yes
  33. Forced : No
  34. Audio #1
  35. ID : 2
  36. Format : DTS
  37. Format/Info : Digital Theater Systems
  38. Codec ID : A_DTS
  39. Duration : 1 h 44 min
  40. Bit rate mode : Constant
  41. Bit rate : 1 509 kb/s
  42. Channel(s) : 6 channels
  43. Channel layout : C L R Ls Rs LFE
  44. Sampling rate : 48.0 kHz
  45. Frame rate : 93.750 FPS (512 SPF)
  46. Bit depth : 24 bits
  47. Compression mode : Lossy
  48. Stream size : 1.10 GiB (29%)
  49. Language : German
  50. Default : Yes
  51. Forced : No
  52. Audio #2
  53. ID : 3
  54. Format : AC-3
  55. Format/Info : Audio Coding 3
  56. Commercial name : Dolby Digital
  57. Codec ID : A_AC3
  58. Duration : 1 h 44 min
  59. Bit rate mode : Constant
  60. Bit rate : 448 kb/s
  61. Channel(s) : 6 channels
  62. Channel layout : L R C LFE Ls Rs
  63. Sampling rate : 48.0 kHz
  64. Frame rate : 31.250 FPS (1536 SPF)
  65. Bit depth : 16 bits
  66. Compression mode : Lossy
  67. Stream size : 334 MiB (9%)
  68. Language : English
  69. Service kind : Complete Main
  70. Default : No
  71. Forced : No
  72. Text #1
  73. ID : 4
  74. Format : UTF-8
  75. Codec ID : S_TEXT/UTF8
  76. Codec ID/Info : UTF-8 Plain Text
  77. Duration : 10 min 10 s
  78. Bit rate : 2 b/s
  79. Count of elements : 5
  80. Stream size : 163 Bytes (0%)
  81. Title : forced
  82. Language : German
  83. Default : Yes
  84. Forced : Yes
  85. Text #2
  86. ID : 5
  87. Format : PGS
  88. Muxing mode : zlib
  89. Codec ID : S_HDMV/PGS
  90. Codec ID/Info : Picture based subtitle format used on BDs/HD-DVDs
  91. Duration : 1 h 42 min
  92. Bit rate : 27.7 kb/s
  93. Count of elements : 1782
  94. Stream size : 20.4 MiB (1%)
  95. Title : complete
  96. Language : German
  97. Default : No
  98. Forced : No
  99. Menu
  100. 00:00:00.000 : en:00:00:00.000
  101. 00:05:13.522 : en:00:05:13.522
  102. 00:10:26.835 : en:00:10:26.835
  103. 00:14:52.225 : en:00:14:52.225
  104. 00:20:33.065 : en:00:20:33.065
  105. 00:24:38.686 : en:00:24:38.686
  106. 00:28:40.886 : en:00:28:40.886
  107. 00:31:10.118 : en:00:31:10.118
  108. 00:37:35.128 : en:00:37:35.128
  109. 00:44:38.551 : en:00:44:38.551
  110. 00:47:53.579 : en:00:47:53.579
  111. 00:53:11.021 : en:00:53:11.021
  112. 00:57:36.286 : en:00:57:36.286
  113. 01:01:25.056 : en:01:01:25.056
  114. 01:08:55.923 : en:01:08:55.923
  115. 01:14:17.703 : en:01:14:17.703
  116. 01:19:31.141 : en:01:19:31.141
  117. 01:23:23.290 : en:01:23:23.290
  118. 01:28:24.716 : en:01:28:24.716
  119. 01:33:53.378 : en:01:33:53.378
Comments powered by Disqus