1. greetings to ARIO MKVTONY NATASHA IN HOLLAND LOETING IN BELGUIM CARLINE IN VIRGINIA GRAPES IN LONDON AND FRIENDS OF MINE!!!!
  2. links dead visit http://scene-rls.net/ for trusted downloads
  3. come and say hello in chatroom
  4. https://scene-release.ishoutbox.com/
  5. dddd=dont dare download dat
  6. General
  7. Complete name : C:\Users\ddddrelease\Desktop\Entering.Red.2019.1080p.WEB-DL.AAC2.0.H.264-NGP.mp4
  8. Format : MPEG-4
  9. Format profile : Base Media
  10. Codec ID : isom (isom/iso2/avc1/mp41)
  11. File size : 107 MiB
  12. Duration : 12 min 25 s
  13. Overall bit rate mode : Variable
  14. Overall bit rate : 1 200 kb/s
  15. Movie name : ddddrelease rlsbb.ru
  16. Album : ddddrelease rlsbb.ru
  17. Album/Performer : ddddrelease rlsbb.ru
  18. Performer : ddddrelease rlsbb.ru
  19. Composer : ddddrelease rlsbb.ru
  20. Encoded date : UTC 2021-06-28 12:32:33
  21. Tagged date : UTC 2021-06-28 12:32:33
  22. Writing application : Lavf58.12.100
  23. Comment : ddddrelease rlsbb.ru
  24. Video
  25. ID : 1
  26. Format : AVC
  27. Format/Info : Advanced Video Codec
  28. Format profile : [email protected]
  29. Format settings : CABAC / 1 Ref Frames
  30. Format settings, CABAC : Yes
  31. Format settings, Reference frames : 1 frame
  32. Format settings, GOP : M=1, N=25
  33. Codec ID : avc1
  34. Codec ID/Info : Advanced Video Coding
  35. Duration : 12 min 25 s
  36. Duration_LastFrame : -3 ms
  37. Bit rate mode : Constant
  38. Bit rate : 1 020 kb/s
  39. Width : 720 pixels
  40. Height : 480 pixels
  41. Display aspect ratio : 3:2
  42. Frame rate mode : Constant
  43. Frame rate : 25.000 FPS
  44. Color space : YUV
  45. Chroma subsampling : 4:2:0
  46. Bit depth : 8 bits
  47. Scan type : Progressive
  48. Bits/(Pixel*Frame) : 0.118
  49. Stream size : 90.5 MiB (85%)
  50. Language : English
  51. Encoded date : UTC 2021-06-28 12:32:33
  52. Tagged date : UTC 2021-06-28 12:32:33
  53. Codec configuration box : avcC
  54. Audio
  55. ID : 2
  56. Format : AAC LC
  57. Format/Info : Advanced Audio Codec Low Complexity
  58. Codec ID : mp4a-40-2
  59. Duration : 12 min 25 s
  60. Bit rate mode : Variable
  61. Bit rate : 177 kb/s
  62. Maximum bit rate : 192 kb/s
  63. Channel(s) : 2 channels
  64. Channel layout : L R
  65. Sampling rate : 48.0 kHz
  66. Frame rate : 46.875 FPS (1024 SPF)
  67. Compression mode : Lossy
  68. Stream size : 15.7 MiB (15%)
  69. Language : English
  70. Default : Yes
  71. Alternate group : 1
  72. Encoded date : UTC 2021-06-28 12:32:33
  73. Tagged date : UTC 2021-06-28 12:32:33
Comments powered by Disqus