1. General
  2. Unique ID : 224836855230912360160421101299412665901 (0xA92600D24FE27D9C8612F53A0572862D)
  3. Complete name : Slaughterhouse.1987.1080p.VINEGAR-SYNDROME.Plus.Comm.DTS.x264-MaG.mkv
  4. Format : Matroska
  5. Format version : Version 4
  6. File size : 9.20 GiB
  7. Duration : 1 h 25 min
  8. Overall bit rate : 15.4 Mb/s
  9. Encoded date : UTC 2019-07-08 13:09:12
  10. Writing application : mkvmerge v9.5.0 ('Quiet Fire') 64bit
  11. Writing library : libebml v1.3.4 + libmatroska v1.4.5 / Lavf58.20.100
  12. Video
  13. ID : 1
  14. Format : AVC
  15. Format/Info : Advanced Video Codec
  16. Format profile : [email protected]
  17. Format settings : CABAC / 4 Ref Frames
  18. Format settings, CABAC : Yes
  19. Format settings, Reference frames : 4 frames
  20. Codec ID : V_MPEG4/ISO/AVC
  21. Duration : 1 h 25 min
  22. Bit rate : 13.7 Mb/s
  23. Width : 1 920 pixels
  24. Height : 1 040 pixels
  25. Display aspect ratio : 1.85:1
  26. Frame rate mode : Constant
  27. Frame rate : 23.976 (24000/1001) FPS
  28. Color space : YUV
  29. Chroma subsampling : 4:2:0
  30. Bit depth : 8 bits
  31. Scan type : Progressive
  32. Bits/(Pixel*Frame) : 0.286
  33. Stream size : 8.18 GiB (89%)
  34. Writing library : x264 core 157 r2935 545de2f
  35. Encoding settings : cabac=1 / ref=4 / deblock=1:-3:-3 / analyse=0x3:0x133 / me=umh / subme=9 / psy=1 / psy_rd=1.00:0.00 / mixed_ref=1 / me_range=24 / chroma_me=1 / trellis=2 / 8x8dct=1 / cqm=0 / deadzone=21,11 / fast_pskip=0 / chroma_qp_offset=-2 / threads=6 / lookahead_threads=1 / sliced_threads=0 / nr=0 / decimate=1 / interlaced=0 / bluray_compat=0 / constrained_intra=0 / bframes=6 / b_pyramid=2 / b_adapt=2 / b_bias=0 / direct=3 / weightb=1 / open_gop=0 / weightp=2 / keyint=240 / keyint_min=24 / scenecut=40 / intra_refresh=0 / rc_lookahead=60 / rc=crf / mbtree=1 / crf=21.0 / qcomp=0.60 / qpmin=0 / qpmax=69 / qpstep=4 / vbv_maxrate=62500 / vbv_bufsize=78125 / crf_max=0.0 / nal_hrd=none / filler=0 / ip_ratio=1.40 / aq=1:1.00
  36. Default : Yes
  37. Forced : No
  38. Color range : Limited
  39. Color primaries : BT.709
  40. Transfer characteristics : BT.709
  41. Matrix coefficients : BT.709
  42. Audio #1
  43. ID : 2
  44. Format : DTS
  45. Format/Info : Digital Theater Systems
  46. Codec ID : A_DTS
  47. Duration : 1 h 25 min
  48. Bit rate mode : Constant
  49. Bit rate : 1 509 kb/s
  50. Channel(s) : 6 channels
  51. Channel layout : C L R Ls Rs LFE
  52. Sampling rate : 48.0 kHz
  53. Frame rate : 93.750 FPS (512 SPF)
  54. Bit depth : 24 bits
  55. Compression mode : Lossy
  56. Stream size : 922 MiB (10%)
  57. Title : DTS 5.1 "Ultra-Stereo' Mix Audio
  58. Language : English
  59. Default : Yes
  60. Forced : No
  61. Audio #2
  62. ID : 3
  63. Format : AC-3
  64. Format/Info : Audio Coding 3
  65. Commercial name : Dolby Digital
  66. Codec ID : A_AC3
  67. Duration : 1 h 25 min
  68. Bit rate mode : Constant
  69. Bit rate : 192 kb/s
  70. Channel(s) : 2 channels
  71. Channel layout : L R
  72. Sampling rate : 48.0 kHz
  73. Frame rate : 31.250 FPS (1536 SPF)
  74. Compression mode : Lossy
  75. Stream size : 117 MiB (1%)
  76. Title : Commentary with Writer/Director Rick Roessler, Producer Jerry Encoe & Production Designer Michael Scaglione
  77. Language : English
  78. Service kind : Complete Main
  79. Default : No
  80. Forced : No
  81. Text
  82. ID : 4
  83. Format : PGS
  84. Muxing mode : zlib
  85. Codec ID : S_HDMV/PGS
  86. Codec ID/Info : Picture based subtitle format used on BDs/HD-DVDs
  87. Duration : 1 h 25 min
  88. Bit rate : 6 894 b/s
  89. Count of elements : 2222
  90. Stream size : 4.21 MiB (0%)
  91. Language : English
  92. Default : No
  93. Forced : No
  94. Menu
  95. 00:00:00.000 : :Chapter 1
  96. 00:07:19.449 : :Chapter 2
  97. 00:14:19.912 : :Chapter 3
  98. 00:19:36.770 : :Chapter 4
  99. 00:26:26.053 : :Chapter 5
  100. 00:34:22.553 : :Chapter 6
  101. 00:41:19.585 : :Chapter 7
  102. 00:49:30.852 : :Chapter 8
  103. 00:58:36.313 : :Chapter 9
  104. 01:06:58.489 : :Chapter 10
  105. 01:14:28.722 : :Chapter 11
  106. 01:23:18.869 : :Chapter 12
Comments powered by Disqus