1. iMDB: http://www.imdb.com/title/tt2170439/
  2. 1080 WEBRiP THANKS
  3. NOTES: FIRST LINE OF SUBTITLE HAVE BLURRED AND SECOND CROPPED
  4. Dale, Kurt and Nick decide to start their own business but things don't go as planned because of a slick investor, prompting the trio to pull off a harebrained and misguided kidnapping scheme.
  5. General
  6. Format : AVI
  7. Format/Info : Audio Video Interleave
  8. File size : 1.29 GiB
  9. Duration : 1h 48mn
  10. Overall bit rate : 1 710 Kbps
  11. Video
  12. ID : 0
  13. Format : MPEG-4 Visual
  14. Format profile : Advanced [email protected]
  15. Format settings, BVOP : 2
  16. Format settings, QPel : No
  17. Format settings, GMC : No warppoints
  18. Format settings, Matrix : Default (H.263)
  19. Muxing mode : Packed bitstream
  20. Codec ID : XVID
  21. Codec ID/Hint : XviD
  22. Duration : 1h 48mn
  23. Bit rate : 1 509 Kbps
  24. Width : 824 pixels
  25. Height : 304 pixels
  26. Display aspect ratio : 2.711
  27. Frame rate : 30.000 fps
  28. Color space : YUV
  29. Chroma subsampling : 4:2:0
  30. Bit depth : 8 bits
  31. Scan type : Progressive
  32. Compression mode : Lossy
  33. Bits/(Pixel*Frame) : 0.201
  34. Stream size : 1.14 GiB (88%)
  35. Writing library : XviD 64
  36. Audio
  37. ID : 1
  38. Format : AC-3
  39. Format/Info : Audio Coding 3
  40. Mode extension : CM (complete main)
  41. Format settings, Endianness : Big
  42. Codec ID : 2000
  43. Duration : 1h 48mn
  44. Bit rate mode : Constant
  45. Bit rate : 192 Kbps
  46. Channel count : 2 channels
  47. Channel positions : Front: L R
  48. Sampling rate : 48.0 KHz
  49. Bit depth : 16 bits
  50. Compression mode : Lossy
  51. Stream size : 149 MiB (11%)
  52. Alignment : Aligned on interleaves
  53. Interleave, duration : 64 ms (1.92 video frames)
  54. Interleave, preload duration : 192 ms
Comments powered by Disqus