1. General
  2. Unique ID : 229757238008215792557402067110585517430 (0xACD9A26C198FB620AFC25A1710E54576)
  3. Complete name : E:\The.Strangers.Prey.at.Night.2018.1080p.BluRay.x264.6CH-Pahe.in.mkv
  4. Format : Matroska
  5. Format version : Version 4 / Version 2
  6. File size : 1.29 GiB
  7. Duration : 1 h 25 min
  8. Overall bit rate : 2 164 kb/s
  9. Movie name : The Strangers: Prey at Night (2018)
  10. Encoded date : UTC 2018-06-02 20:57:55
  11. Writing application : mkvmerge v15.0.0 ('Duel with the Devil') 64-bit
  12. Writing library : libebml v1.3.5 + libmatroska v1.4.5
  13. Cover : Yes
  14. Attachments : cover.jpg
  15. Encoded by : ʕ·ᴥ· ʔ Pahe.in
  16. Video
  17. ID : 1
  18. Format : AVC
  19. Format/Info : Advanced Video Codec
  20. Format profile : [email protected]
  21. Format settings : CABAC / 5 Ref Frames
  22. Format settings, CABAC : Yes
  23. Format settings, ReFrames : 5 frames
  24. Codec ID : V_MPEG4/ISO/AVC
  25. Duration : 1 h 25 min
  26. Bit rate : 2 006 kb/s
  27. Width : 1 920 pixels
  28. Height : 804 pixels
  29. Display aspect ratio : 2.40:1
  30. Frame rate mode : Constant
  31. Frame rate : 23.976 (24000/1001) FPS
  32. Color space : YUV
  33. Chroma subsampling : 4:2:0
  34. Bit depth : 8 bits
  35. Scan type : Progressive
  36. Bits/(Pixel*Frame) : 0.054
  37. Stream size : 1.20 GiB (93%)
  38. Writing library : x264 core 152 r2851 ba24899
  39. Encoding settings : cabac=1 / ref=5 / deblock=1:-3:-3 / analyse=0x3:0x133 / me=umh / subme=10 / psy=1 / psy_rd=1.00:0.15 / mixed_ref=1 / me_range=32 / chroma_me=1 / trellis=2 / 8x8dct=1 / cqm=0 / deadzone=21,11 / fast_pskip=1 / chroma_qp_offset=-3 / threads=18 / lookahead_threads=2 / sliced_threads=0 / nr=0 / decimate=1 / interlaced=0 / bluray_compat=0 / constrained_intra=0 / bframes=5 / b_pyramid=2 / b_adapt=2 / b_bias=0 / direct=3 / weightb=1 / open_gop=0 / weightp=2 / keyint=250 / keyint_min=23 / scenecut=40 / intra_refresh=0 / rc_lookahead=60 / rc=crf / mbtree=1 / crf=21.0 / qcomp=0.60 / qpmin=0 / qpmax=69 / qpstep=4 / vbv_maxrate=27500 / vbv_bufsize=25000 / crf_max=0.0 / nal_hrd=none / filler=0 / ip_ratio=1.40 / aq=3:0.80
  40. Default : Yes
  41. Forced : No
  42. Audio
  43. ID : 2
  44. Format : AAC
  45. Format/Info : Advanced Audio Codec
  46. Format profile : HE-AAC / LC
  47. Format settings : Explicit
  48. Codec ID : A_AAC-2
  49. Duration : 1 h 25 min
  50. Bit rate : 156 kb/s
  51. Channel(s) : 6 channels
  52. Channel positions : Front: L C R, Side: L R, LFE
  53. Sampling rate : 48.0 kHz / 24.0 kHz
  54. Frame rate : 23.438 FPS (1024 SPF)
  55. Compression mode : Lossy
  56. Delay relative to video : 31 ms
  57. Stream size : 95.6 MiB (7%)
  58. Language : English
  59. Default : No
  60. Forced : No
  61. Text
  62. ID : 3
  63. Format : UTF-8
  64. Codec ID : S_TEXT/UTF8
  65. Codec ID/Info : UTF-8 Plain Text
  66. Duration : 1 h 13 min
  67. Bit rate : 26 b/s
  68. Count of elements : 618
  69. Stream size : 14.1 KiB (0%)
  70. Language : English
  71. Default : No
  72. Forced : No
  73. Menu
  74. 00:00:00.000 : en:00:00:00.000
  75. 00:04:59.883 : en:00:04:59.883
  76. 00:08:49.154 : en:00:08:49.154
  77. 00:12:58.111 : en:00:12:58.111
  78. 00:17:23.918 : en:00:17:23.918
  79. 00:21:53.771 : en:00:21:53.771
  80. 00:24:53.909 : en:00:24:53.909
  81. 00:30:15.105 : en:00:30:15.105
  82. 00:34:45.208 : en:00:34:45.208
  83. 00:40:01.899 : en:00:40:01.899
  84. 00:44:48.728 : en:00:44:48.728
  85. 00:49:48.444 : en:00:49:48.444
  86. 00:53:12.606 : en:00:53:12.606
  87. 00:56:55.996 : en:00:56:55.996
  88. 00:58:20.705 : en:00:58:20.705
  89. 01:00:37.884 : en:01:00:37.884
  90. 01:05:21.709 : en:01:05:21.709
  91. 01:09:17.528 : en:01:09:17.528
  92. 01:14:59.036 : en:01:14:59.036
  93. 01:18:07.349 : en:01:18:07.349
Comments powered by Disqus