1. General
  2. Unique ID : 207055597422267933456854070601965841499 (0x9BC5752037BCAFEEB8E827711D872C5B)
  3. Complete name : Homo Sapiens 2016 1080p WEB-DL DDP2.0 H.264 -NTb.mkv
  4. Format : Matroska
  5. Format version : Version 4 / Version 2
  6. File size : 2.21 GiB
  7. Duration : 1 h 34 min
  8. Overall bit rate mode : Variable
  9. Overall bit rate : 3 370 kb/s
  10. Movie name : Homo Sapiens 2016 1080p Web Dl Ddp2 0 H 264
  11. Description : {name}
  12. Encoded date : UTC 2017-06-29 19:32:04
  13. Writing application : mkvmerge v12.0.0 ('Trust / Lust') 64bit
  14. Writing library : libebml v1.3.4 + libmatroska v1.4.5
  15. Video
  16. ID : 1
  17. Format : AVC
  18. Format/Info : Advanced Video Codec
  19. Format profile : [email protected]
  20. Format settings : CABAC / 4 Ref Frames
  21. Format settings, CABAC : Yes
  22. Format settings, RefFrames : 4 frames
  23. Codec ID : V_MPEG4/ISO/AVC
  24. Duration : 1 h 34 min
  25. Bit rate mode : Variable
  26. Bit rate : 3 079 kb/s
  27. Maximum bit rate : 15.0 Mb/s
  28. Width : 1 920 pixels
  29. Height : 1 040 pixels
  30. Display aspect ratio : 1.85:1
  31. Frame rate mode : Constant
  32. Frame rate : 24.000 FPS
  33. Color space : YUV
  34. Chroma subsampling : 4:2:0
  35. Bit depth : 8 bits
  36. Scan type : Progressive
  37. Bits/(Pixel*Frame) : 0.064
  38. Stream size : 2.02 GiB (91%)
  39. Default : Yes
  40. Forced : No
  41. Color range : Limited
  42. Color primaries : BT.709
  43. Transfer characteristics : BT.709
  44. Matrix coefficients : BT.709
  45. Audio
  46. ID : 2
  47. Format : E-AC-3
  48. Format/Info : Enhanced Audio Coding 3
  49. Codec ID : A_EAC3
  50. Duration : 1 h 34 min
  51. Bit rate mode : Constant
  52. Bit rate : 224 kb/s
  53. Channel(s) : 2 channels
  54. Channel positions : Front: L R
  55. Sampling rate : 48.0 kHz
  56. Frame rate : 187.500 FPS (256 SPF)
  57. Compression mode : Lossy
  58. Stream size : 151 MiB (7%)
  59. Language : English
  60. Service kind : Complete Main
  61. Default : Yes
  62. Forced : No
  63. Text
  64. ID : 3
  65. Format : UTF-8
  66. Codec ID : S_TEXT/UTF8
  67. Codec ID/Info : UTF-8 Plain Text
  68. Language : English
  69. Default : No
  70. Forced : No
Comments powered by Disqus