1. Video : AVC @ 21995 kbps
  2. Audio : DTS-HD MA 5.1 @ 1860 kbps
  3. Chapters : Yes (Not named)
  4. Source : Happy.Valley.S02.1080p.Blu-ray.AVC.DTS-HD.MA.5.1-SENATiON (thanks!)
  5. General
  6. Unique ID : 337042001880043656119104417222128663641 (0xFD8FEDAB35A13778EEE4AE5C1DE57C59)
  7. Complete name : Happy.Valley.S02E01.Episode.One.1080p.BluRay.REMUX.AVC.DTS-HD.MA.5.1-EPSiLON.mkv
  8. Format : Matroska
  9. Format version : Version 4 / Version 2
  10. File size : 9.47 GiB
  11. Duration : 50mn 12s
  12. Overall bit rate mode : Variable
  13. Overall bit rate : 27.0 Mbps
  14. Encoded date : UTC 2017-01-15 00:04:38
  15. Writing application : mkvmerge v9.7.1 ('Pandemonium') 64bit
  16. Writing library : libebml v1.3.4 + libmatroska v1.4.5
  17. Video
  18. ID : 1
  19. Format : AVC
  20. Format/Info : Advanced Video Codec
  21. Format profile : [email protected]
  22. Format settings, CABAC : Yes
  23. Format settings, ReFrames : 3 frames
  24. Codec ID : V_MPEG4/ISO/AVC
  25. Duration : 50mn 12s
  26. Bit rate mode : Variable
  27. Bit rate : 25.0 Mbps
  28. Maximum bit rate : 37.0 Mbps
  29. Width : 1 920 pixels
  30. Height : 1 080 pixels
  31. Display aspect ratio : 16:9
  32. Frame rate mode : Constant
  33. Frame rate : 25.000 fps
  34. Color space : YUV
  35. Chroma subsampling : 4:2:0
  36. Bit depth : 8 bits
  37. Scan type : Progressive
  38. Bits/(Pixel*Frame) : 0.482
  39. Stream size : 8.77 GiB (93%)
  40. Title : MPEG-4 AVC Video / 24996 kbps / 1080p / 25 fps / 16:9 / High Profile 4.1
  41. Language : English
  42. Default : Yes
  43. Forced : No
  44. Audio
  45. ID : 2
  46. Format : DTS
  47. Format/Info : Digital Theater Systems
  48. Format profile : MA / Core
  49. Mode : 16
  50. Format settings, Endianness : Big
  51. Codec ID : A_DTS
  52. Duration : 50mn 12s
  53. Bit rate mode : Variable / Constant
  54. Bit rate : 1 878 Kbps / 1 509 Kbps
  55. Channel(s) : 6 channels
  56. Channel positions : Front: L C R, Side: L R, LFE
  57. Sampling rate : 48.0 KHz
  58. Frame rate : 93.750 fps (512 spf)
  59. Bit depth : 16 bits
  60. Compression mode : Lossless / Lossy
  61. Stream size : 674 MiB (7%)
  62. Title : DTS-HD Master Audio / 5.1 / 48 kHz / 1878 kbps / 16-bit
  63. Language : English
  64. Default : Yes
  65. Forced : No
  66. Text #1
  67. ID : 3
  68. Format : PGS
  69. Codec ID : S_HDMV/PGS
  70. Codec ID/Info : Picture based subtitle format used on BDs/HD-DVDs
  71. Duration : 48mn 51s
  72. Bit rate : 66.5 Kbps
  73. Count of elements : 1769
  74. Stream size : 23.2 MiB (0%)
  75. Title : SDH
  76. Language : English
  77. Default : No
  78. Forced : No
  79. Text #2
  80. ID : 4
  81. Format : PGS
  82. Codec ID : S_HDMV/PGS
  83. Codec ID/Info : Picture based subtitle format used on BDs/HD-DVDs
  84. Duration : 48mn 46s
  85. Bit rate : 60.5 Kbps
  86. Count of elements : 1456
  87. Stream size : 21.1 MiB (0%)
  88. Language : German
  89. Default : No
  90. Forced : No
  91. Menu
  92. 00:00:00.000 : en:Chapter 1
  93. 00:06:55.760 : en:Chapter 2
  94. 00:14:52.240 : en:Chapter 3
  95. 00:24:49.760 : en:Chapter 4
  96. 00:31:20.040 : en:Chapter 5
  97. 00:41:05.800 : en:Chapter 6
Comments powered by Disqus