1. greetings to ARIO MKVTONY NATASHA IN HOLLAND LOETING IN BELGUIM CARLINE IN VIRGINIA GRAPES IN LONDON AND FRIENDS OF MINE!!!!
  2. links dead visit http://scene-rls.net/ for trusted downloads
  3. come and say hello in chatroom
  4. https://scene-release.ishoutbox.com/
  5. dddd=dont dare download dat
  6. i dont do h265 encodes no more unless it is a big title from hollywood h265 movies freezes up and breaks up while playing it on videolan vlc isnt ready for it yet :(
  7. General
  8. Complete name : C:\Users\ddddrelease\Desktop\Serena.2014.1080p.BluRay.DD5.1.x264-EbP.mp4
  9. Format : MPEG-4
  10. Format profile : Base Media
  11. Codec ID : isom (isom/iso2/avc1/mp41)
  12. File size : 606 MiB
  13. Duration : 1 h 49 min
  14. Overall bit rate mode : Constant
  15. Overall bit rate : 773 kb/s
  16. Movie name : ddddrelease rlsbb.ru
  17. Album : ddddrelease rlsbb.ru
  18. Album/Performer : ddddrelease rlsbb.ru
  19. Performer : ddddrelease rlsbb.ru
  20. Composer : ddddrelease rlsbb.ru
  21. Encoded date : UTC 2015-03-03 17:17:22
  22. Tagged date : UTC 2015-03-03 17:17:22
  23. Writing application : Lavf58.12.100
  24. Comment : ddddrelease rlsbb.ru
  25. Video
  26. ID : 1
  27. Format : AVC
  28. Format/Info : Advanced Video Codec
  29. Format profile : [email protected]
  30. Format settings : CABAC / 1 Ref Frames
  31. Format settings, CABAC : Yes
  32. Format settings, Reference frames : 1 frame
  33. Format settings, GOP : M=1, N=25
  34. Codec ID : avc1
  35. Codec ID/Info : Advanced Video Coding
  36. Duration : 1 h 49 min
  37. Bit rate mode : Constant
  38. Bit rate : 512 kb/s
  39. Width : 720 pixels
  40. Height : 480 pixels
  41. Display aspect ratio : 3:2
  42. Frame rate mode : Variable
  43. Frame rate : 23.976 (23976/1000) FPS
  44. Minimum frame rate : 4.785 FPS
  45. Maximum frame rate : 27.335 FPS
  46. Original frame rate : 23.976 (24000/1001) FPS
  47. Color space : YUV
  48. Chroma subsampling : 4:2:0
  49. Bit depth : 8 bits
  50. Scan type : Progressive
  51. Bits/(Pixel*Frame) : 0.062
  52. Stream size : 402 MiB (66%)
  53. Title : Serena (2014)
  54. Language : English
  55. Encoded date : UTC 2015-03-03 17:17:22
  56. Tagged date : UTC 2015-03-03 17:17:22
  57. Codec configuration box : avcC
  58. Audio
  59. ID : 2
  60. Format : AC-3
  61. Format/Info : Audio Coding 3
  62. Commercial name : Dolby Digital
  63. Codec ID : ac-3
  64. Duration : 1 h 49 min
  65. Bit rate mode : Constant
  66. Bit rate : 256 kb/s
  67. Channel(s) : 2 channels
  68. Channel layout : L R
  69. Sampling rate : 48.0 kHz
  70. Frame rate : 31.250 FPS (1536 SPF)
  71. Compression mode : Lossy
  72. Stream size : 201 MiB (33%)
  73. Title : AC-3 5.1 @ 640 Kbps
  74. Language : English
  75. Service kind : Complete Main
  76. Default : Yes
  77. Alternate group : 1
  78. Encoded date : UTC 2015-03-03 17:17:22
  79. Tagged date : UTC 2015-03-03 17:17:22
Comments powered by Disqus