1. General
  2. Unique ID : 233474426782307385669004674793209777012 (0xAFA589FA84E8088F34EE1EAA9E9ECB74)
  3. Complete name : Palm.Beach.2019.1080p.BluRay.REMUX.AVC.DTS-HD.MA.5.1-EPSiLON.mkv
  4. Format : Matroska
  5. Format version : Version 4
  6. File size : 16.0 GiB
  7. Duration : 1 h 37 min
  8. Overall bit rate mode : Variable
  9. Overall bit rate : 23.6 Mb/s
  10. Movie name : Palm Beach (2019)
  11. Encoded date : UTC 2019-11-20 01:38:55
  12. Writing application : mkvmerge v38.0.0 ('The Silent Type') 64-bit
  13. Writing library : libebml v1.3.9 + libmatroska v1.5.2
  14. IMDB : tt8751928
  15. TMDB : movie/522464
  16. Video
  17. ID : 1
  18. Format : AVC
  19. Format/Info : Advanced Video Codec
  20. Format profile : [email protected]
  21. Format settings : CABAC / 4 Ref Frames
  22. Format settings, CABAC : Yes
  23. Format settings, Reference frames : 4 frames
  24. Format settings, GOP : M=3, N=12
  25. Codec ID : V_MPEG4/ISO/AVC
  26. Duration : 1 h 37 min
  27. Bit rate mode : Variable
  28. Bit rate : 21.7 Mb/s
  29. Maximum bit rate : 38.0 Mb/s
  30. Width : 1 920 pixels
  31. Height : 1 080 pixels
  32. Display aspect ratio : 16:9
  33. Frame rate mode : Constant
  34. Frame rate : 23.976 (24000/1001) FPS
  35. Color space : YUV
  36. Chroma subsampling : 4:2:0
  37. Bit depth : 8 bits
  38. Scan type : Progressive
  39. Bits/(Pixel*Frame) : 0.437
  40. Stream size : 14.7 GiB (92%)
  41. Title : MPEG-4 AVC Video / 21993 kbps / 1080p / 23.976 fps / 16:9 / High Profile 4.1
  42. Language : English
  43. Default : Yes
  44. Forced : No
  45. Audio
  46. ID : 2
  47. Format : DTS XLL
  48. Format/Info : Digital Theater Systems
  49. Commercial name : DTS-HD Master Audio
  50. Codec ID : A_DTS
  51. Duration : 1 h 37 min
  52. Bit rate mode : Variable
  53. Bit rate : 1 832 kb/s
  54. Channel(s) : 6 channels
  55. Channel layout : C L R Ls Rs LFE
  56. Sampling rate : 48.0 kHz
  57. Frame rate : 93.750 FPS (512 SPF)
  58. Bit depth : 16 bits
  59. Compression mode : Lossless
  60. Stream size : 1.24 GiB (8%)
  61. Title : DTS-HD Master Audio / 5.1 / 48 kHz / 1832 kbps / 16-bit
  62. Language : English
  63. Default : Yes
  64. Forced : No
  65. Text
  66. ID : 3
  67. Format : PGS
  68. Codec ID : S_HDMV/PGS
  69. Codec ID/Info : Picture based subtitle format used on BDs/HD-DVDs
  70. Duration : 1 h 36 min
  71. Bit rate : 40.8 kb/s
  72. Count of elements : 3080
  73. Stream size : 28.1 MiB (0%)
  74. Title : SDH
  75. Language : English
  76. Default : No
  77. Forced : No
  78. Menu
  79. 00:00:00.000 : en:Chapter 1
  80. 00:04:57.422 : en:Chapter 2
  81. 00:11:34.485 : en:Chapter 3
  82. 00:16:17.268 : en:Chapter 4
  83. 00:21:52.520 : en:Chapter 5
  84. 00:27:23.392 : en:Chapter 6
  85. 00:33:26.922 : en:Chapter 7
  86. 00:38:08.578 : en:Chapter 8
  87. 00:42:56.199 : en:Chapter 9
  88. 00:47:35.311 : en:Chapter 10
  89. 00:52:40.991 : en:Chapter 11
  90. 00:56:50.115 : en:Chapter 12
  91. 01:02:07.515 : en:Chapter 13
  92. 01:08:22.515 : en:Chapter 14
  93. 01:12:40.982 : en:Chapter 15
  94. 01:18:02.845 : en:Chapter 16
  95. 01:24:18.387 : en:Chapter 17
  96. 01:30:52.405 : en:Chapter 18
Comments powered by Disqus