1. General
  2. Complete name : C:\Users\ddddrelease\Desktop\Sledgehammer.1983.DVDRIP.x264-WATCHABLE.mp4
  3. Format : MPEG-4
  4. Format profile : Base Media
  5. Codec ID : isom (isom/iso2/avc1/mp41)
  6. File size : 486 MiB
  7. Duration : 1 h 24 min
  8. Overall bit rate : 801 kb/s
  9. Encoded date : UTC 2021-06-30 15:04:21
  10. Tagged date : UTC 2021-06-30 15:04:21
  11. Writing application : Lavf58.12.100
  12. Video
  13. ID : 1
  14. Format : AVC
  15. Format/Info : Advanced Video Codec
  16. Format profile : [email protected]
  17. Format settings : CABAC / 2 Ref Frames
  18. Format settings, CABAC : Yes
  19. Format settings, Reference frames : 2 frames
  20. Format settings, GOP : M=1, N=25
  21. Codec ID : avc1
  22. Codec ID/Info : Advanced Video Coding
  23. Duration : 1 h 24 min
  24. Duration_FirstFrame : 33 ms
  25. Bit rate : 600 kb/s
  26. Width : 720 pixels
  27. Height : 480 pixels
  28. Display aspect ratio : 3:2
  29. Frame rate mode : Constant
  30. Frame rate : 29.970 (30000/1001) FPS
  31. Standard : NTSC
  32. Color space : YUV
  33. Chroma subsampling : 4:2:0
  34. Bit depth : 8 bits
  35. Scan type : Progressive
  36. Bits/(Pixel*Frame) : 0.058
  37. Stream size : 364 MiB (75%)
  38. Encoded date : UTC 2021-06-30 15:04:21
  39. Tagged date : UTC 2021-06-30 15:04:21
  40. Codec configuration box : avcC
  41. Audio
  42. ID : 2
  43. Format : AAC LC
  44. Format/Info : Advanced Audio Codec Low Complexity
  45. Codec ID : mp4a-40-2
  46. Duration : 1 h 24 min
  47. Bit rate mode : Constant
  48. Bit rate : 192 kb/s
  49. Channel(s) : 1 channel
  50. Channel layout : C
  51. Sampling rate : 48.0 kHz
  52. Frame rate : 46.875 FPS (1024 SPF)
  53. Compression mode : Lossy
  54. Stream size : 118 MiB (24%)
  55. Language : English
  56. Default : Yes
  57. Alternate group : 1
  58. Encoded date : UTC 2021-06-30 15:04:21
  59. Tagged date : UTC 2021-06-30 15:04:21
Comments powered by Disqus