1. General
  2. Unique ID : 246133526679585827907800762034377978674 (0xB92B97CA9650C8F5F1BEF6FDDFE3F332)
  3. Complete name : unfired-wasmaennerwollen-x265.mkv
  4. Format : Matroska
  5. Format version : Version 4
  6. File size : 2.26 GiB
  7. Duration : 1 h 57 min
  8. Overall bit rate : 2 762 kb/s
  9. Encoded date : UTC 2019-05-08 08:27:50
  10. Writing application : mkvmerge v28.2.0 ('The Awakening') 64-bit
  11. Writing library : libebml v1.3.6 + libmatroska v1.4.9
  12. Video
  13. ID : 1
  14. Format : HEVC
  15. Format/Info : High Efficiency Video Coding
  16. Format profile : [email protected]@Main
  17. Codec ID : V_MPEGH/ISO/HEVC
  18. Duration : 1 h 57 min
  19. Bit rate : 2 112 kb/s
  20. Width : 1 920 pixels
  21. Height : 804 pixels
  22. Display aspect ratio : 2.40:1
  23. Frame rate mode : Constant
  24. Frame rate : 23.976 (24000/1001) FPS
  25. Color space : YUV
  26. Chroma subsampling : 4:2:0
  27. Bit depth : 8 bits
  28. Bits/(Pixel*Frame) : 0.057
  29. Stream size : 1.73 GiB (76%)
  30. Writing library : x265 2.9+1-169e76b6bbcc:[Windows][GCC 8.2.0][64 bit] 8bit+10bit+12bit
  31. Encoding settings : cpuid=1049583 / frame-threads=3 / numa-pools=8 / wpp / no-pmode / no-pme / no-psnr / no-ssim / log-level=2 / input-csp=1 / input-res=1920x804 / interlace=0 / total-frames=168464 / level-idc=0 / high-tier=1 / uhd-bd=0 / ref=4 / no-allow-non-conformance / no-repeat-headers / annexb / no-aud / no-hrd / info / hash=0 / no-temporal-layers / open-gop / min-keyint=23 / keyint=250 / gop-lookahead=0 / bframes=4 / b-adapt=2 / b-pyramid / bframe-bias=0 / rc-lookahead=25 / lookahead-slices=4 / scenecut=40 / radl=0 / no-intra-refresh / ctu=64 / min-cu-size=8 / rect / no-amp / max-tu-size=32 / tu-inter-depth=1 / tu-intra-depth=1 / limit-tu=0 / rdoq-level=2 / dynamic-rd=0.00 / no-ssim-rd / signhide / no-tskip / nr-intra=0 / nr-inter=0 / no-constrained-intra / strong-intra-smoothing / max-merge=3 / limit-refs=3 / limit-modes / me=3 / subme=3 / merange=57 / temporal-mvp / weightp / no-weightb / no-analyze-src-pics / deblock=0:0 / sao / no-sao-non-deblock / rd=4 / no-early-skip / rskip / no-fast-intra / no-tskip-fast / no-cu-lossless / no-b-intra / no-splitrd-skip / rdpenalty=0 / psy-rd=2.00 / psy-rdoq=1.00 / no-rd-refine / no-lossless / cbqpoffs=0 / crqpoffs=0 / rc=crf / crf=19.9 / qcomp=0.60 / qpstep=4 / stats-write=0 / stats-read=0 / ipratio=1.40 / pbratio=1.30 / aq-mode=1 / aq-strength=1.00 / cutree / zone-count=0 / no-strict-cbr / qg-size=32 / no-rc-grain / qpmax=69 / qpmin=0 / no-const-vbv / sar=1 / overscan=0 / videoformat=5 / range=0 / colorprim=2 / transfer=2 / colormatrix=2 / chromaloc=0 / display-window=0 / max-cll=0,0 / min-luma=0 / max-luma=255 / log2-max-poc-lsb=8 / vui-timing-info / vui-hrd-info / slices=1 / no-opt-qp-pps / no-opt-ref-list-length-pps / no-multi-pass-opt-rps / scenecut-bias=0.05 / no-opt-cu-delta-qp / no-aq-motion / no-hdr / no-hdr-opt / no-dhdr10-opt / no-idr-recovery-sei / analysis-reuse-level=5 / scale-factor=0 / refine-intra=0 / refine-inter=0 / refine-mv=0 / no-limit-sao / ctu-info=0 / no-lowpass-dct / refine-mv-type=0 / copy-pic=1 / max-ausize-factor=1.0 / no-dynamic-refine / no-single-sei
  32. Default : Yes
  33. Forced : No
  34. Audio
  35. ID : 2
  36. Format : AC-3
  37. Format/Info : Audio Coding 3
  38. Commercial name : Dolby Digital
  39. Codec ID : A_AC3
  40. Duration : 1 h 57 min
  41. Bit rate mode : Constant
  42. Bit rate : 640 kb/s
  43. Channel(s) : 6 channels
  44. Channel layout : L R C LFE Ls Rs
  45. Sampling rate : 48.0 kHz
  46. Frame rate : 31.250 FPS (1536 SPF)
  47. Bit depth : 16 bits
  48. Compression mode : Lossy
  49. Delay relative to video : 32 ms
  50. Stream size : 536 MiB (23%)
  51. Language : German
  52. Service kind : Complete Main
  53. Default : Yes
  54. Forced : No
  55. Text #1
  56. ID : 3
  57. Format : UTF-8
  58. Codec ID : S_TEXT/UTF8
  59. Codec ID/Info : UTF-8 Plain Text
  60. Duration : 1 h 56 min
  61. Bit rate : 0 b/s
  62. Count of elements : 21
  63. Stream size : 611 Bytes (0%)
  64. Title : forced
  65. Language : German
  66. Default : Yes
  67. Forced : Yes
  68. Text #2
  69. ID : 4
  70. Format : VobSub
  71. Muxing mode : zlib
  72. Codec ID : S_VOBSUB
  73. Codec ID/Info : Picture based subtitle format used on DVDs
  74. Duration : 1 h 56 min
  75. Bit rate : 14.1 kb/s
  76. Count of elements : 2089
  77. Stream size : 11.7 MiB (1%)
  78. Title : complete
  79. Language : German
  80. Default : No
  81. Forced : No
  82. Menu
  83. 00:00:00.000 : :Kapitel 01
  84. 00:11:26.519 : :Kapitel 02
  85. 00:22:01.903 : :Kapitel 03
  86. 00:31:02.443 : :Kapitel 04
  87. 00:43:07.668 : :Kapitel 05
  88. 00:51:37.969 : :Kapitel 06
  89. 01:01:19.842 : :Kapitel 07
  90. 01:10:45.616 : :Kapitel 08
  91. 01:18:53.395 : :Kapitel 09
  92. 01:28:42.900 : :Kapitel 10
  93. 01:38:51.842 : :Kapitel 11
  94. 01:47:41.663 : :Kapitel 12
Comments powered by Disqus