1. General
  2. Complete name : Despicable Me 3 2017 HC-HDRip-x264-AC3 5.1-Zi$t
  3. Format : Matroska
  4. Format version : Version 4 / Version 2
  5. File size : 601 MiB
  6. Duration : 1 h 25 min
  7. Overall bit rate : 979 kb/s
  8. Movie name : Despicable Me 3 2017 HC-HDRip-x264-AC3 5.1-Zi$t-WWRG
  9. Encoded date : UTC 2017-08-31 11:08:06
  10. Writing application : mkvmerge v13.0.0 ('The Juggler') 64bit
  11. Writing library : libebml v1.3.4 + libmatroska v1.4.5
  12. IsTruncated : Yes
  13. Video
  14. ID : 1
  15. Format : AVC
  16. Format/Info : Advanced Video Codec
  17. Format profile : [email protected]
  18. Format settings, CABAC : Yes
  19. Format settings, ReFrames : 4 frames
  20. Codec ID : V_MPEG4/ISO/AVC
  21. Duration : 1 h 25 min
  22. Bit rate : 753 kb/s
  23. Width : 720 pixels
  24. Height : 304 pixels
  25. Display aspect ratio : 2.35:1
  26. Frame rate mode : Constant
  27. Frame rate : 30.000 FPS
  28. Color space : YUV
  29. Chroma subsampling : 4:2:0
  30. Bit depth : 8 bits
  31. Scan type : Progressive
  32. Bits/(Pixel*Frame) : 0.115
  33. Stream size : 462 MiB (77%)
  34. Writing library : x264 core 148 r2694bm 3b70645
  35. Encoding settings : cabac=1 / ref=3 / deblock=1:0:0 / analyse=0x3:0x113 / me=hex / subme=7 / psy=1 / psy_rd=1.00:0.00 / mixed_ref=1 / me_range=16 / chroma_me=1 / trellis=1 / 8x8dct=1 / cqm=0 / deadzone=21,11 / fast_pskip=1 / chroma_qp_offset=-2 / threads=6 / lookahead_threads=1 / sliced_threads=0 / nr=0 / decimate=1 / interlaced=0 / bluray_compat=0 / constrained_intra=0 / bframes=3 / b_pyramid=2 / b_adapt=1 / b_bias=0 / direct=1 / weightb=1 / open_gop=0 / weightp=2 / keyint=250 / keyint_min=25 / scenecut=40 / intra_refresh=0 / rc_lookahead=40 / rc=crf / mbtree=1 / crf=20.0 / qcomp=0.60 / qpmin=0 / qpmax=69 / qpstep=4 / ip_ratio=1.40 / aq=1:1.00
  36. Default : Yes
  37. Forced : No
  38. Audio
  39. ID : 2
  40. Format : AC-3
  41. Format/Info : Audio Coding 3
  42. Mode extension : CM (complete main)
  43. Format settings, Endianness : Big
  44. Codec ID : A_AC3
  45. Duration : 1 h 25 min
  46. Bit rate mode : Constant
  47. Bit rate : 224 kb/s
  48. Channel(s) : 6 channels
  49. Channel positions : Front: L C R, Side: L R, LFE
  50. Sampling rate : 48.0 kHz
  51. Frame rate : 31.250 FPS (1536 spf)
  52. Bit depth : 16 bits
  53. Compression mode : Lossy
  54. Stream size : 138 MiB (23%)
  55. Language : English
  56. Default : Yes
  57. Forced : No

Despicable Me 3 2017 HC-HDRip-x264-AC3 5.1-Zi$t

Comments powered by Disqus