1. General
  2. Unique ID : 39641834748064793819347017754921023722 (0x1DD2BD5A4DBE2237E6F7D77AFF5E38EA)
  3. Complete name : Little.America.S01E01.The.Manager.1080p.ATVP.WEBRip.DDP5.1.x264-NTb.mkv
  4. Format : Matroska
  5. Format version : Version 4 / Version 2
  6. File size : 1.74 GiB
  7. Duration : 29 min 8 s
  8. Overall bit rate : 8 558 kb/s
  9. Encoded date : UTC 2020-02-20 13:58:43
  10. Writing application : mkvmerge v43.0.0 ('The Quartermaster') 64-bit
  11. Writing library : libebml v1.3.10 + libmatroska v1.5.2
  12. Video
  13. ID : 1
  14. Format : AVC
  15. Format/Info : Advanced Video Codec
  16. Format profile : [email protected]
  17. Format settings : CABAC / 4 Ref Frames
  18. Format settings, CABAC : Yes
  19. Format settings, ReFrames : 4 frames
  20. Codec ID : V_MPEG4/ISO/AVC
  21. Duration : 29 min 8 s
  22. Bit rate : 7 783 kb/s
  23. Width : 1 920 pixels
  24. Height : 1 012 pixels
  25. Display aspect ratio : 1.897
  26. Frame rate mode : Constant
  27. Frame rate : 23.976 (24000/1001) FPS
  28. Color space : YUV
  29. Chroma subsampling : 4:2:0
  30. Bit depth : 8 bits
  31. Scan type : Progressive
  32. Bits/(Pixel*Frame) : 0.167
  33. Stream size : 1.58 GiB (91%)
  34. Writing library : x264 core 159 r2991+50 29469ee t_mod_New [[email protected] X86_64]
  35. Encoding settings : cabac=1 / ref=4 / deblock=1:-3:-3 / analyse=0x3:0x133 / me=umh / subme=10 / psy=1 / fade_compensate=0.00 / psy_rd=1.00:0.15 / mixed_ref=1 / me_range=48 / chroma_me=1 / trellis=2 / 8x8dct=1 / cqm=0 / deadzone=21,11 / fast_pskip=0 / chroma_qp_offset=-3 / threads=12 / lookahead_threads=2 / sliced_threads=0 / nr=0 / decimate=0 / interlaced=0 / bluray_compat=0 / constrained_intra=0 / fgo=0 / bframes=8 / b_pyramid=2 / b_adapt=2 / b_bias=0 / direct=3 / weightb=1 / open_gop=0 / weightp=2 / keyint=250 / keyint_min=23 / scenecut=40 / intra_refresh=0 / rc=crf / mbtree=0 / crf=18.0000 / qcomp=0.60 / qpmin=0:0:0 / qpmax=69:69:69 / qpstep=4 / ip_ratio=1.30 / pb_ratio=1.20 / aq=3:0.80 / aq-sensitivity=10.00 / aq-factor=1.00:1.00:1.00 / aq2=0 / aq3=0
  36. Default : Yes
  37. Forced : No
  38. Audio
  39. ID : 2
  40. Format : E-AC-3
  41. Format/Info : Enhanced Audio Coding 3
  42. Format profile : E-AC-3+Atmos / E-AC-3
  43. Codec ID : A_EAC3
  44. Duration : 29 min 8 s
  45. Bit rate mode : Constant
  46. Bit rate : 768 kb/s
  47. Channel(s) : 15 objects / 6 channels
  48. Channel positions : 15 objects / Front: L C R, Side: L R, LFE
  49. Sampling rate : 48.0 kHz
  50. Frame rate : 187.500 FPS (256 SPF)
  51. Compression mode : Lossy
  52. Stream size : 160 MiB (9%)
  53. Language : English
  54. Service kind : Complete Main
  55. Default : Yes
  56. Forced : No
  57. Text #1
  58. ID : 3
  59. Format : UTF-8
  60. Codec ID : S_TEXT/UTF8
  61. Codec ID/Info : UTF-8 Plain Text
  62. Duration : 22 min 47 s
  63. Bit rate : 0 b/s
  64. Count of elements : 6
  65. Stream size : 119 Bytes (0%)
  66. Title : English (Forced)
  67. Language : English
  68. Default : Yes
  69. Forced : Yes
  70. Text #2
  71. ID : 4
  72. Format : UTF-8
  73. Codec ID : S_TEXT/UTF8
  74. Codec ID/Info : UTF-8 Plain Text
  75. Duration : 25 min 33 s
  76. Bit rate : 59 b/s
  77. Count of elements : 378
  78. Stream size : 11.1 KiB (0%)
  79. Language : English
  80. Default : No
  81. Forced : No
  82. Text #3
  83. ID : 5
  84. Format : UTF-8
  85. Codec ID : S_TEXT/UTF8
  86. Codec ID/Info : UTF-8 Plain Text
  87. Duration : 27 min 50 s
  88. Bit rate : 63 b/s
  89. Count of elements : 447
  90. Stream size : 13.0 KiB (0%)
  91. Title : English (SDH)
  92. Language : English
  93. Default : No
  94. Forced : No
  95. Text #4
  96. ID : 6
  97. Format : UTF-8
  98. Codec ID : S_TEXT/UTF8
  99. Codec ID/Info : UTF-8 Plain Text
  100. Duration : 29 min 0 s
  101. Bit rate : 47 b/s
  102. Count of elements : 394
  103. Stream size : 10.2 KiB (0%)
  104. Language : Chinese
  105. Default : No
  106. Forced : No
  107. Text #5
  108. ID : 7
  109. Format : UTF-8
  110. Codec ID : S_TEXT/UTF8
  111. Codec ID/Info : UTF-8 Plain Text
  112. Duration : 29 min 0 s
  113. Bit rate : 46 b/s
  114. Count of elements : 395
  115. Stream size : 9.91 KiB (0%)
  116. Language : Chinese
  117. Default : No
  118. Forced : No
  119. Text #6
  120. ID : 8
  121. Format : UTF-8
  122. Codec ID : S_TEXT/UTF8
  123. Codec ID/Info : UTF-8 Plain Text
  124. Duration : 29 min 0 s
  125. Bit rate : 52 b/s
  126. Count of elements : 434
  127. Stream size : 11.1 KiB (0%)
  128. Language : Spanish
  129. Default : No
  130. Forced : No
  131. Text #7
  132. ID : 9
  133. Format : UTF-8
  134. Codec ID : S_TEXT/UTF8
  135. Codec ID/Info : UTF-8 Plain Text
  136. Duration : 29 min 0 s
  137. Bit rate : 50 b/s
  138. Count of elements : 395
  139. Stream size : 10.7 KiB (0%)
  140. Language : Chinese
  141. Default : No
  142. Forced : No
  143. Text #8
  144. ID : 10
  145. Format : UTF-8
  146. Codec ID : S_TEXT/UTF8
  147. Codec ID/Info : UTF-8 Plain Text
  148. Duration : 29 min 0 s
  149. Bit rate : 75 b/s
  150. Count of elements : 394
  151. Stream size : 16.0 KiB (0%)
  152. Language : Arabic
  153. Default : No
  154. Forced : No
  155. Text #9
  156. ID : 11
  157. Format : UTF-8
  158. Codec ID : S_TEXT/UTF8
  159. Codec ID/Info : UTF-8 Plain Text
  160. Duration : 29 min 0 s
  161. Bit rate : 75 b/s
  162. Count of elements : 393
  163. Stream size : 15.9 KiB (0%)
  164. Language : Bulgarian
  165. Default : No
  166. Forced : No
  167. Text #10
  168. ID : 12
  169. Format : UTF-8
  170. Codec ID : S_TEXT/UTF8
  171. Codec ID/Info : UTF-8 Plain Text
  172. Duration : 29 min 0 s
  173. Bit rate : 50 b/s
  174. Count of elements : 389
  175. Stream size : 10.8 KiB (0%)
  176. Language : Czech
  177. Default : No
  178. Forced : No
  179. Text #11
  180. ID : 13
  181. Format : UTF-8
  182. Codec ID : S_TEXT/UTF8
  183. Codec ID/Info : UTF-8 Plain Text
  184. Duration : 29 min 0 s
  185. Bit rate : 52 b/s
  186. Count of elements : 392
  187. Stream size : 11.2 KiB (0%)
  188. Language : Danish
  189. Default : No
  190. Forced : No
  191. Text #12
  192. ID : 14
  193. Format : UTF-8
  194. Codec ID : S_TEXT/UTF8
  195. Codec ID/Info : UTF-8 Plain Text
  196. Duration : 29 min 0 s
  197. Bit rate : 41 b/s
  198. Count of elements : 361
  199. Stream size : 8.78 KiB (0%)
  200. Language : Dutch
  201. Default : No
  202. Forced : No
  203. Text #13
  204. ID : 15
  205. Format : UTF-8
  206. Codec ID : S_TEXT/UTF8
  207. Codec ID/Info : UTF-8 Plain Text
  208. Duration : 29 min 0 s
  209. Bit rate : 47 b/s
  210. Count of elements : 385
  211. Stream size : 10.2 KiB (0%)
  212. Language : Estonian
  213. Default : No
  214. Forced : No
  215. Text #14
  216. ID : 16
  217. Format : UTF-8
  218. Codec ID : S_TEXT/UTF8
  219. Codec ID/Info : UTF-8 Plain Text
  220. Duration : 29 min 0 s
  221. Bit rate : 48 b/s
  222. Count of elements : 392
  223. Stream size : 10.2 KiB (0%)
  224. Language : Finnish
  225. Default : No
  226. Forced : No
  227. Text #15
  228. ID : 17
  229. Format : UTF-8
  230. Codec ID : S_TEXT/UTF8
  231. Codec ID/Info : UTF-8 Plain Text
  232. Duration : 28 min 56 s
  233. Bit rate : 45 b/s
  234. Count of elements : 330
  235. Stream size : 9.55 KiB (0%)
  236. Title : French (Canada)
  237. Language : French
  238. Default : No
  239. Forced : No
  240. Text #16
  241. ID : 18
  242. Format : UTF-8
  243. Codec ID : S_TEXT/UTF8
  244. Codec ID/Info : UTF-8 Plain Text
  245. Duration : 28 min 56 s
  246. Bit rate : 45 b/s
  247. Count of elements : 327
  248. Stream size : 9.59 KiB (0%)
  249. Title : French (France)
  250. Language : French
  251. Default : No
  252. Forced : No
  253. Text #17
  254. ID : 19
  255. Format : UTF-8
  256. Codec ID : S_TEXT/UTF8
  257. Codec ID/Info : UTF-8 Plain Text
  258. Duration : 28 min 56 s
  259. Bit rate : 44 b/s
  260. Count of elements : 333
  261. Stream size : 9.51 KiB (0%)
  262. Language : German
  263. Default : No
  264. Forced : No
  265. Text #18
  266. ID : 20
  267. Format : UTF-8
  268. Codec ID : S_TEXT/UTF8
  269. Codec ID/Info : UTF-8 Plain Text
  270. Duration : 29 min 0 s
  271. Bit rate : 88 b/s
  272. Count of elements : 394
  273. Stream size : 18.8 KiB (0%)
  274. Language : Greek
  275. Default : No
  276. Forced : No
  277. Text #19
  278. ID : 21
  279. Format : UTF-8
  280. Codec ID : S_TEXT/UTF8
  281. Codec ID/Info : UTF-8 Plain Text
  282. Duration : 29 min 0 s
  283. Bit rate : 70 b/s
  284. Count of elements : 394
  285. Stream size : 15.0 KiB (0%)
  286. Language : Hebrew
  287. Default : No
  288. Forced : No
  289. Text #20
  290. ID : 22
  291. Format : UTF-8
  292. Codec ID : S_TEXT/UTF8
  293. Codec ID/Info : UTF-8 Plain Text
  294. Duration : 29 min 0 s
  295. Bit rate : 129 b/s
  296. Count of elements : 395
  297. Stream size : 27.6 KiB (0%)
  298. Language : Hindi
  299. Default : No
  300. Forced : No
  301. Text #21
  302. ID : 23
  303. Format : UTF-8
  304. Codec ID : S_TEXT/UTF8
  305. Codec ID/Info : UTF-8 Plain Text
  306. Duration : 29 min 0 s
  307. Bit rate : 52 b/s
  308. Count of elements : 381
  309. Stream size : 11.1 KiB (0%)
  310. Language : Hungarian
  311. Default : No
  312. Forced : No
  313. Text #22
  314. ID : 24
  315. Format : UTF-8
  316. Codec ID : S_TEXT/UTF8
  317. Codec ID/Info : UTF-8 Plain Text
  318. Duration : 29 min 0 s
  319. Bit rate : 53 b/s
  320. Count of elements : 391
  321. Stream size : 11.3 KiB (0%)
  322. Language : Indonesian
  323. Default : No
  324. Forced : No
  325. Text #23
  326. ID : 25
  327. Format : UTF-8
  328. Codec ID : S_TEXT/UTF8
  329. Codec ID/Info : UTF-8 Plain Text
  330. Duration : 29 min 0 s
  331. Bit rate : 52 b/s
  332. Count of elements : 358
  333. Stream size : 11.2 KiB (0%)
  334. Language : Italian
  335. Default : No
  336. Forced : No
  337. Text #24
  338. ID : 26
  339. Format : UTF-8
  340. Codec ID : S_TEXT/UTF8
  341. Codec ID/Info : UTF-8 Plain Text
  342. Duration : 29 min 0 s
  343. Bit rate : 45 b/s
  344. Count of elements : 364
  345. Stream size : 9.72 KiB (0%)
  346. Language : Japanese
  347. Default : No
  348. Forced : No
  349. Text #25
  350. ID : 27
  351. Format : UTF-8
  352. Codec ID : S_TEXT/UTF8
  353. Codec ID/Info : UTF-8 Plain Text
  354. Duration : 29 min 0 s
  355. Bit rate : 56 b/s
  356. Count of elements : 393
  357. Stream size : 12.0 KiB (0%)
  358. Language : Latvian
  359. Default : No
  360. Forced : No
  361. Text #26
  362. ID : 28
  363. Format : UTF-8
  364. Codec ID : S_TEXT/UTF8
  365. Codec ID/Info : UTF-8 Plain Text
  366. Duration : 29 min 0 s
  367. Bit rate : 56 b/s
  368. Count of elements : 383
  369. Stream size : 12.1 KiB (0%)
  370. Language : Lithuanian
  371. Default : No
  372. Forced : No
  373. Text #27
  374. ID : 29
  375. Format : UTF-8
  376. Codec ID : S_TEXT/UTF8
  377. Codec ID/Info : UTF-8 Plain Text
  378. Duration : 29 min 0 s
  379. Bit rate : 54 b/s
  380. Count of elements : 383
  381. Stream size : 11.5 KiB (0%)
  382. Language : Malay
  383. Default : No
  384. Forced : No
  385. Text #28
  386. ID : 30
  387. Format : UTF-8
  388. Codec ID : S_TEXT/UTF8
  389. Codec ID/Info : UTF-8 Plain Text
  390. Duration : 29 min 0 s
  391. Bit rate : 46 b/s
  392. Count of elements : 379
  393. Stream size : 9.93 KiB (0%)
  394. Language : Norwegian
  395. Default : No
  396. Forced : No
  397. Text #29
  398. ID : 31
  399. Format : UTF-8
  400. Codec ID : S_TEXT/UTF8
  401. Codec ID/Info : UTF-8 Plain Text
  402. Duration : 29 min 0 s
  403. Bit rate : 55 b/s
  404. Count of elements : 393
  405. Stream size : 11.8 KiB (0%)
  406. Language : Polish
  407. Default : No
  408. Forced : No
  409. Text #30
  410. ID : 32
  411. Format : UTF-8
  412. Codec ID : S_TEXT/UTF8
  413. Codec ID/Info : UTF-8 Plain Text
  414. Duration : 29 min 0 s
  415. Bit rate : 54 b/s
  416. Count of elements : 391
  417. Stream size : 11.7 KiB (0%)
  418. Language : Portuguese
  419. Default : No
  420. Forced : No
  421. Text #31
  422. ID : 33
  423. Format : UTF-8
  424. Codec ID : S_TEXT/UTF8
  425. Codec ID/Info : UTF-8 Plain Text
  426. Duration : 29 min 0 s
  427. Bit rate : 48 b/s
  428. Count of elements : 392
  429. Stream size : 10.3 KiB (0%)
  430. Title : Portuguese (Brazil)
  431. Language : Portuguese
  432. Default : No
  433. Forced : No
  434. Text #32
  435. ID : 34
  436. Format : UTF-8
  437. Codec ID : S_TEXT/UTF8
  438. Codec ID/Info : UTF-8 Plain Text
  439. Duration : 29 min 0 s
  440. Bit rate : 83 b/s
  441. Count of elements : 395
  442. Stream size : 17.7 KiB (0%)
  443. Language : Russian
  444. Default : No
  445. Forced : No
  446. Text #33
  447. ID : 35
  448. Format : UTF-8
  449. Codec ID : S_TEXT/UTF8
  450. Codec ID/Info : UTF-8 Plain Text
  451. Duration : 29 min 0 s
  452. Bit rate : 45 b/s
  453. Count of elements : 392
  454. Stream size : 9.75 KiB (0%)
  455. Language : Slovak
  456. Default : No
  457. Forced : No
  458. Text #34
  459. ID : 36
  460. Format : UTF-8
  461. Codec ID : S_TEXT/UTF8
  462. Codec ID/Info : UTF-8 Plain Text
  463. Duration : 29 min 0 s
  464. Bit rate : 43 b/s
  465. Count of elements : 392
  466. Stream size : 9.25 KiB (0%)
  467. Language : Slovenian
  468. Default : No
  469. Forced : No
  470. Text #35
  471. ID : 37
  472. Format : UTF-8
  473. Codec ID : S_TEXT/UTF8
  474. Codec ID/Info : UTF-8 Plain Text
  475. Duration : 29 min 0 s
  476. Bit rate : 51 b/s
  477. Count of elements : 384
  478. Stream size : 11.0 KiB (0%)
  479. Title : Spanish (Latin America)
  480. Language : Spanish
  481. Default : No
  482. Forced : No
  483. Text #36
  484. ID : 38
  485. Format : UTF-8
  486. Codec ID : S_TEXT/UTF8
  487. Codec ID/Info : UTF-8 Plain Text
  488. Duration : 29 min 0 s
  489. Bit rate : 50 b/s
  490. Count of elements : 393
  491. Stream size : 10.7 KiB (0%)
  492. Language : Swedish
  493. Default : No
  494. Forced : No
  495. Text #37
  496. ID : 39
  497. Format : UTF-8
  498. Codec ID : S_TEXT/UTF8
  499. Codec ID/Info : UTF-8 Plain Text
  500. Duration : 29 min 0 s
  501. Bit rate : 146 b/s
  502. Count of elements : 394
  503. Stream size : 31.1 KiB (0%)
  504. Language : Tamil
  505. Default : No
  506. Forced : No
  507. Text #38
  508. ID : 40
  509. Format : UTF-8
  510. Codec ID : S_TEXT/UTF8
  511. Codec ID/Info : UTF-8 Plain Text
  512. Duration : 29 min 0 s
  513. Bit rate : 152 b/s
  514. Count of elements : 394
  515. Stream size : 32.5 KiB (0%)
  516. Language : Telugu
  517. Default : No
  518. Forced : No
  519. Text #39
  520. ID : 41
  521. Format : UTF-8
  522. Codec ID : S_TEXT/UTF8
  523. Codec ID/Info : UTF-8 Plain Text
  524. Duration : 29 min 0 s
  525. Bit rate : 129 b/s
  526. Count of elements : 392
  527. Stream size : 27.5 KiB (0%)
  528. Language : Thai
  529. Default : No
  530. Forced : No
  531. Text #40
  532. ID : 42
  533. Format : UTF-8
  534. Codec ID : S_TEXT/UTF8
  535. Codec ID/Info : UTF-8 Plain Text
  536. Duration : 29 min 0 s
  537. Bit rate : 78 b/s
  538. Count of elements : 393
  539. Stream size : 16.7 KiB (0%)
  540. Language : Ukrainian
  541. Default : No
  542. Forced : No
  543. Text #41
  544. ID : 43
  545. Format : UTF-8
  546. Codec ID : S_TEXT/UTF8
  547. Codec ID/Info : UTF-8 Plain Text
  548. Duration : 29 min 0 s
  549. Bit rate : 64 b/s
  550. Count of elements : 386
  551. Stream size : 13.7 KiB (0%)
  552. Language : Vietnamese
  553. Default : No
  554. Forced : No
Comments powered by Disqus