1. General
  2. Unique ID : 149723588758197651233216988530121168496 (0x70A3B6DC2BF38A947F8FA4687218D670)
  3. Complete name : Charmed.S02E01.1080p.BluRay.Remux.DTS-HD.MA2.0.H.264-BTN.mkv
  4. Format : Matroska
  5. Format version : Version 4
  6. File size : 8.56 GiB
  7. Duration : 43 min 9 s
  8. Overall bit rate mode : Variable
  9. Overall bit rate : 28.4 Mb/s
  10. Encoded date : UTC 2019-10-26 20:52:26
  11. Writing application : mkvmerge v38.0.0 ('The Silent Type') 64-bit
  12. Writing library : libebml v1.3.9 + libmatroska v1.5.2
  13. Video
  14. ID : 1
  15. Format : AVC
  16. Format/Info : Advanced Video Codec
  17. Format profile : [email protected]
  18. Format settings : CABAC / 2 Ref Frames
  19. Format settings, CABAC : Yes
  20. Format settings, Reference frames : 2 frames
  21. Format settings, GOP : M=1, N=5
  22. Codec ID : V_MPEG4/ISO/AVC
  23. Duration : 43 min 9 s
  24. Bit rate mode : Variable
  25. Bit rate : 24.8 Mb/s
  26. Maximum bit rate : 38.2 Mb/s
  27. Width : 1 920 pixels
  28. Height : 1 080 pixels
  29. Display aspect ratio : 16:9
  30. Frame rate mode : Constant
  31. Frame rate : 23.976 (24000/1001) FPS
  32. Color space : YUV
  33. Chroma subsampling : 4:2:0
  34. Bit depth : 8 bits
  35. Scan type : Progressive
  36. Bits/(Pixel*Frame) : 0.499
  37. Stream size : 7.48 GiB (87%)
  38. Language : English
  39. Default : No
  40. Forced : No
  41. Audio #1
  42. ID : 2
  43. Format : DTS XLL
  44. Format/Info : Digital Theater Systems
  45. Commercial name : DTS-HD Master Audio
  46. Codec ID : A_DTS
  47. Duration : 43 min 9 s
  48. Bit rate mode : Variable
  49. Bit rate : 2 091 kb/s
  50. Channel(s) : 2 channels
  51. Channel layout : L R
  52. Sampling rate : 48.0 kHz
  53. Frame rate : 93.750 FPS (512 SPF)
  54. Bit depth : 24 bits
  55. Compression mode : Lossless
  56. Stream size : 645 MiB (7%)
  57. Title : Stereo
  58. Language : English
  59. Default : Yes
  60. Forced : No
  61. Audio #2
  62. ID : 3
  63. Format : DTS
  64. Format/Info : Digital Theater Systems
  65. Codec ID : A_DTS
  66. Duration : 43 min 9 s
  67. Bit rate mode : Constant
  68. Bit rate : 1 509 kb/s
  69. Channel(s) : 2 channels
  70. Channel layout : L R
  71. Sampling rate : 48.0 kHz
  72. Frame rate : 93.750 FPS (512 SPF)
  73. Bit depth : 24 bits
  74. Compression mode : Lossy
  75. Stream size : 466 MiB (5%)
  76. Title : Stereo
  77. Language : English
  78. Default : No
  79. Forced : No
  80. Text
  81. ID : 4
  82. Format : UTF-8
  83. Codec ID : S_TEXT/UTF8
  84. Codec ID/Info : UTF-8 Plain Text
  85. Duration : 42 min 5 s
  86. Bit rate : 82 b/s
  87. Count of elements : 625
  88. Stream size : 25.4 KiB (0%)
  89. Language : English
  90. Default : No
  91. Forced : No
  92. Menu
  93. 00:00:00.000 : en:Chapter 01
  94. 00:04:57.122 : en:Chapter 02
  95. 00:16:18.941 : en:Chapter 03
  96. 00:25:14.804 : en:Chapter 04
  97. 00:34:54.454 : en:Chapter 05
  98. 00:42:27.957 : en:Chapter 06
Comments powered by Disqus