1. General
  2. Complete name : C:\Users\xxxxxxx\OneDrive\Desktop\The.355.2022.1080p.WEBRip.x264-RARBG.subbed.proper.720x480p.h264.800kb.ddddrelease.rlsbhb.ru.mp4
  3. Format : MPEG-4
  4. Format profile : Base Media
  5. Codec ID : isom (isom/iso2/avc1/mp41)
  6. File size : 1.16 GiB
  7. Duration : 2 h 2 min
  8. Overall bit rate mode : Variable
  9. Overall bit rate : 1 350 kb/s
  10. Movie name : The.355.2022.1080p.WEBRip.x264-RARBG.subbed.proper.720x480p.h264.800kb.ddddrelease.rlsbhb.ru
  11. Album : The.355.2022.1080p.WEBRip.x264-RARBG.subbed.proper.720x480p.h264.800kb.ddddrelease.rlsbhb.ru
  12. Album/Performer : The.355.2022.1080p.WEBRip.x264-RARBG.subbed.proper.720x480p.h264.800kb.ddddrelease.rlsbhb.ru
  13. Performer : The.355.2022.1080p.WEBRip.x264-RARBG.subbed.proper.720x480p.h264.800kb.ddddrelease.rlsbhb.ru
  14. Composer : The.355.2022.1080p.WEBRip.x264-RARBG.subbed.proper.720x480p.h264.800kb.ddddrelease.rlsbhb.ru
  15. Encoded date : UTC 2022-01-27 07:34:27
  16. Tagged date : UTC 2022-01-27 07:34:27
  17. Writing application : Lavf58.12.100
  18. Comment : The.355.2022.1080p.WEBRip.x264-RARBG.subbed.proper.720x480p.h264.800kb.ddddrelease.rlsbhb.ru
  19. Video
  20. ID : 1
  21. Format : AVC
  22. Format/Info : Advanced Video Codec
  23. Format profile : [email protected]
  24. Format settings : CABAC / 1 Ref Frames
  25. Format settings, CABAC : Yes
  26. Format settings, Reference frames : 1 frame
  27. Format settings, GOP : M=1, N=25
  28. Codec ID : avc1
  29. Codec ID/Info : Advanced Video Coding
  30. Duration : 2 h 2 min
  31. Duration_FirstFrame : 42 ms
  32. Duration_LastFrame : -13 ms
  33. Bit rate mode : Constant
  34. Bit rate : 800 kb/s
  35. Width : 720 pixels
  36. Height : 480 pixels
  37. Display aspect ratio : 3:2
  38. Frame rate mode : Constant
  39. Frame rate : 23.976 (23976/1000) FPS
  40. Color space : YUV
  41. Chroma subsampling : 4:2:0
  42. Bit depth : 8 bits
  43. Scan type : Progressive
  44. Bits/(Pixel*Frame) : 0.097
  45. Stream size : 701 MiB (59%)
  46. Encoded date : UTC 2022-01-27 07:34:27
  47. Tagged date : UTC 2022-01-27 07:34:27
  48. Codec configuration box : avcC
  49. Audio
  50. ID : 2
  51. Format : AAC LC
  52. Format/Info : Advanced Audio Codec Low Complexity
  53. Codec ID : mp4a-40-2
  54. Duration : 2 h 2 min
  55. Bit rate mode : Variable
  56. Bit rate : 546 kb/s
  57. Maximum bit rate : 576 kb/s
  58. Channel(s) : 6 channels
  59. Channel layout : C L R Ls Rs LFE
  60. Sampling rate : 48.0 kHz
  61. Frame rate : 46.875 FPS (1024 SPF)
  62. Compression mode : Lossy
  63. Stream size : 479 MiB (40%)
  64. Language : English
  65. Default : Yes
  66. Alternate group : 1
  67. Encoded date : UTC 2022-01-27 07:34:27
  68. Tagged date : UTC 2022-01-27 07:34:27
Comments powered by Disqus