1. General
  2. Unique ID : 305906747258312475111426992516683185519 (0xE6237F18E2F321E5DC538E72EDE2BD6F)
  3. Complete name : unfired-kurier-x265.mkv
  4. Format : Matroska
  5. Format version : Version 2
  6. File size : 3.03 GiB
  7. Duration : 1 h 29 min
  8. Overall bit rate : 4 823 kb/s
  9. Encoded date : UTC 2018-05-17 17:44:47
  10. Writing application : mkvmerge v22.0.0 ('At The End Of The World') 64-bit
  11. Writing library : libebml v1.3.5 + libmatroska v1.4.8
  12. Video
  13. ID : 1
  14. Format : HEVC
  15. Format/Info : High Efficiency Video Coding
  16. Format profile : [email protected]@Main
  17. Codec ID : V_MPEGH/ISO/HEVC
  18. Duration : 1 h 29 min
  19. Bit rate : 1 791 kb/s
  20. Width : 1 920 pixels
  21. Height : 800 pixels
  22. Display aspect ratio : 2.40:1
  23. Frame rate mode : Constant
  24. Frame rate : 23.976 (24000/1001) FPS
  25. Color space : YUV
  26. Chroma subsampling : 4:2:0
  27. Bit depth : 8 bits
  28. Bits/(Pixel*Frame) : 0.049
  29. Stream size : 1.13 GiB (37%)
  30. Writing library : x265 2.7+1-2aa737a99f51:[Windows][GCC 7.3.0][64 bit] 8bit+10bit+12bit
  31. Encoding settings : cpuid=1050111 / frame-threads=3 / numa-pools=8 / wpp / no-pmode / no-pme / no-psnr / no-ssim / log-level=2 / input-csp=1 / input-res=1920x800 / interlace=0 / total-frames=129382 / level-idc=0 / high-tier=1 / uhd-bd=0 / ref=4 / no-allow-non-conformance / no-repeat-headers / annexb / no-aud / no-hrd / info / hash=0 / no-temporal-layers / open-gop / min-keyint=23 / keyint=250 / gop-lookahead=0 / bframes=4 / b-adapt=2 / b-pyramid / bframe-bias=0 / rc-lookahead=25 / lookahead-slices=4 / scenecut=40 / radl=0 / no-intra-refresh / ctu=64 / min-cu-size=8 / rect / no-amp / max-tu-size=32 / tu-inter-depth=1 / tu-intra-depth=1 / limit-tu=0 / rdoq-level=2 / dynamic-rd=0.00 / no-ssim-rd / signhide / no-tskip / nr-intra=0 / nr-inter=0 / no-constrained-intra / strong-intra-smoothing / max-merge=3 / limit-refs=3 / limit-modes / me=3 / subme=3 / merange=57 / temporal-mvp / weightp / no-weightb / no-analyze-src-pics / deblock=0:0 / sao / no-sao-non-deblock / rd=4 / no-early-skip / rskip / no-fast-intra / no-tskip-fast / no-cu-lossless / no-b-intra / no-splitrd-skip / rdpenalty=0 / psy-rd=2.00 / psy-rdoq=1.00 / no-rd-refine / no-lossless / cbqpoffs=0 / crqpoffs=0 / rc=crf / crf=19.0 / qcomp=0.60 / qpstep=4 / stats-write=0 / stats-read=0 / ipratio=1.40 / pbratio=1.30 / aq-mode=1 / aq-strength=1.00 / cutree / zone-count=0 / no-strict-cbr / qg-size=32 / no-rc-grain / qpmax=69 / qpmin=0 / no-const-vbv / sar=1 / overscan=0 / videoformat=5 / range=0 / colorprim=2 / transfer=2 / colormatrix=2 / chromaloc=0 / display-window=0 / max-cll=0,0 / min-luma=0 / max-luma=255 / log2-max-poc-lsb=8 / vui-timing-info / vui-hrd-info / slices=1 / no-opt-qp-pps / no-opt-ref-list-length-pps / no-multi-pass-opt-rps / scenecut-bias=0.05 / no-opt-cu-delta-qp / no-aq-motion / no-hdr / no-hdr-opt / no-dhdr10-opt / analysis-reuse-level=5 / scale-factor=0 / refine-intra=0 / refine-inter=0 / refine-mv=0 / no-limit-sao / ctu-info=0 / no-lowpass-dct / refine-mv-type=0 / copy-pic=1
  32. Default : Yes
  33. Forced : No
  34. Audio #1
  35. ID : 2
  36. Format : DTS
  37. Format/Info : Digital Theater Systems
  38. Codec ID : A_DTS
  39. Duration : 1 h 29 min
  40. Bit rate mode : Constant
  41. Bit rate : 1 509 kb/s
  42. Channel(s) : 6 channels
  43. Channel positions : Front: L C R, Side: L R, LFE
  44. Sampling rate : 48.0 kHz
  45. Frame rate : 93.750 FPS (512 SPF)
  46. Bit depth : 24 bits
  47. Compression mode : Lossy
  48. Stream size : 971 MiB (31%)
  49. Language : German
  50. Default : Yes
  51. Forced : No
  52. Audio #2
  53. ID : 3
  54. Format : DTS
  55. Format/Info : Digital Theater Systems
  56. Codec ID : A_DTS
  57. Duration : 1 h 29 min
  58. Bit rate mode : Constant
  59. Bit rate : 1 509 kb/s
  60. Channel(s) : 6 channels
  61. Channel positions : Front: L C R, Side: L R, LFE
  62. Sampling rate : 48.0 kHz
  63. Frame rate : 93.750 FPS (512 SPF)
  64. Bit depth : 24 bits
  65. Compression mode : Lossy
  66. Stream size : 971 MiB (31%)
  67. Language : English
  68. Default : No
  69. Forced : No
  70. Text #1
  71. ID : 4
  72. Format : UTF-8
  73. Codec ID : S_TEXT/UTF8
  74. Codec ID/Info : UTF-8 Plain Text
  75. Duration : 49 min 15 s
  76. Bit rate : 0 b/s
  77. Count of elements : 4
  78. Stream size : 95.0 Bytes (0%)
  79. Title : forced
  80. Language : German
  81. Default : Yes
  82. Forced : Yes
  83. Text #2
  84. ID : 5
  85. Format : PGS
  86. Muxing mode : zlib
  87. Codec ID : S_HDMV/PGS
  88. Codec ID/Info : Picture based subtitle format used on BDs/HD-DVDs
  89. Duration : 1 h 21 min
  90. Bit rate : 27.9 kb/s
  91. Count of elements : 2071
  92. Stream size : 16.2 MiB (1%)
  93. Title : complete
  94. Language : German
  95. Default : No
  96. Forced : No
  97. Menu
  98. 00:00:00.000 : en:00:00:00.000
  99. 00:07:37.624 : en:00:07:37.624
  100. 00:14:23.404 : en:00:14:23.404
  101. 00:22:23.551 : en:00:22:23.551
  102. 00:29:25.138 : en:00:29:25.138
  103. 00:38:57.877 : en:00:38:57.877
  104. 00:47:55.289 : en:00:47:55.289
  105. 00:56:52.284 : en:00:56:52.284
  106. 01:02:48.390 : en:01:02:48.390
  107. 01:08:16.092 : en:01:08:16.092
  108. 01:15:47.710 : en:01:15:47.710
  109. 01:23:12.446 : en:01:23:12.446
Comments powered by Disqus