1. Video
  2. ID : 1
  3. Format : AVC
  4. Format/Info : Advanced Video Codec
  5. Format profile : [email protected]
  6. Format settings, CABAC : Yes
  7. Format settings, ReFrames : 5 frames
  8. Codec ID : V_MPEG4/ISO/AVC
  9. Duration : 1h 48mn
  10. Bit rate : 4 486 Kbps
  11. Width : 1 908 pixels
  12. Height : 796 pixels
  13. Display aspect ratio : 2.40:1
  14. Frame rate mode : Constant
  15. Frame rate : 23.976 (24000/1001) fps
  16. Color space : YUV
  17. Chroma subsampling : 4:2:0
  18. Bit depth : 8 bits
  19. Scan type : Progressive
  20. Bits/(Pixel*Frame) : 0.123
  21. Stream size : 3.39 GiB (90%)
  22. Title : American.Pastoral.2016.1080p.WEB-DL.DD5.1.H264-FGT
  23. Language : English
  24. Default : Yes
  25. Forced : No
  26. Color range : Limited
  27. Color primaries : BT.709
  28. Transfer characteristics : BT.709
  29. Matrix coefficients : BT.709
  30. Audio
  31. ID : 2
  32. Format : AC-3
  33. Format/Info : Audio Coding 3
  34. Mode extension : CM (complete main)
  35. Format settings, Endianness : Big
  36. Codec ID : A_AC3
  37. Duration : 1h 48mn
  38. Bit rate mode : Constant
  39. Bit rate : 384 Kbps
  40. Channel(s) : 6 channels
  41. Channel positions : Front: L C R, Side: L R, LFE
  42. Sampling rate : 48.0 KHz
  43. Frame rate : 31.250 fps (1536 spf)
  44. Compression mode : Lossy
  45. Stream size : 297 MiB (8%)
  46. Title : American.Pastoral.2016.1080p.WEB-DL.DD5.1.H264-FGT
  47. Language : English
  48. Default : Yes
  49. Forced : No
  50. Text
  51. ID : 3
  52. Format : UTF-8
  53. Codec ID : S_TEXT/UTF8
  54. Codec ID/Info : UTF-8 Plain Text
  55. Language : English
  56. Default : Yes
  57. Forced : No
  58. Menu
  59. 00:00:00.000 : en:1
  60. 00:03:48.000 : en:2
  61. 00:14:40.000 : en:3
  62. 00:24:36.000 : en:4
  63. 00:37:59.000 : en:5
  64. 00:48:58.000 : en:6
  65. 00:58:05.000 : en:7
  66. 01:08:46.000 : en:8
  67. 01:14:35.000 : en:9
  68. 01:27:33.000 : en:10
  69. 01:42:35.000 : en:11
Comments powered by Disqus