1. General
  2. Complete name : C:\Users\ddddrelease\Desktop\The.Untold.Story.1993.720p.BluRay.x264-USURY.mp4
  3. Format : MPEG-4
  4. Format profile : Base Media
  5. Codec ID : isom (isom/iso2/mp41)
  6. File size : 634 MiB
  7. Duration : 1 h 35 min
  8. Overall bit rate : 925 kb/s
  9. Movie name : ddddrelease rlsbb.ru
  10. Album : ddddrelease rlsbb.ru
  11. Album/Performer : ddddrelease rlsbb.ru
  12. Performer : ddddrelease rlsbb.ru
  13. Composer : ddddrelease rlsbb.ru
  14. Encoded date : UTC 2021-06-03 12:23:18
  15. Tagged date : UTC 2021-06-03 12:23:18
  16. Writing application : Lavf58.12.100
  17. Comment : ddddrelease rlsbb.ru
  18. Video
  19. ID : 1
  20. Format : HEVC
  21. Format/Info : High Efficiency Video Coding
  22. Format profile : [email protected]@Main
  23. Codec ID : hvc1
  24. Codec ID/Info : High Efficiency Video Coding
  25. Duration : 1 h 35 min
  26. Bit rate : 726 kb/s
  27. Width : 720 pixels
  28. Height : 480 pixels
  29. Display aspect ratio : 3:2
  30. Frame rate mode : Variable
  31. Frame rate : 24.000 FPS
  32. Minimum frame rate : 12.047 FPS
  33. Maximum frame rate : 3 072.000 FPS
  34. Standard : Component
  35. Color space : YUV
  36. Chroma subsampling : 4:2:0
  37. Bit depth : 8 bits
  38. Bits/(Pixel*Frame) : 0.088
  39. Stream size : 498 MiB (79%)
  40. Language : English
  41. Encoded date : UTC 2021-06-03 12:23:18
  42. Tagged date : UTC 2021-06-03 12:23:18
  43. Color range : Limited
  44. Codec configuration box : hvcC
  45. Audio
  46. ID : 2
  47. Format : AAC LC
  48. Format/Info : Advanced Audio Codec Low Complexity
  49. Codec ID : mp4a-40-2
  50. Duration : 1 h 35 min
  51. Bit rate mode : Constant
  52. Bit rate : 192 kb/s
  53. Channel(s) : 2 channels
  54. Channel layout : L R
  55. Sampling rate : 48.0 kHz
  56. Frame rate : 46.875 FPS (1024 SPF)
  57. Compression mode : Lossy
  58. Stream size : 133 MiB (21%)
  59. Title : English Commentary by Art Ettinger and Bruce Holecheck
  60. Language : English
  61. Default : Yes
  62. Alternate group : 1
  63. Encoded date : UTC 2021-06-03 12:23:18
  64. Tagged date : UTC 2021-06-03 12:23:18
Comments powered by Disqus