1. General
  2. Unique ID : 311011255256608400507310832330572178313 (0xE9FA96C5B0BF6297D6C6BACE15822389)
  3. Complete name : unfired-irobot-x265.mkv
  4. Format : Matroska
  5. Format version : Version 2
  6. File size : 5.34 GiB
  7. Duration : 1 h 54 min
  8. Overall bit rate : 6 663 kb/s
  9. Encoded date : UTC 2018-07-30 04:08:07
  10. Writing application : mkvmerge v24.0.0 ('Beyond The Pale') 64-bit
  11. Writing library : libebml v1.3.6 + libmatroska v1.4.9
  12. Video
  13. ID : 1
  14. Format : HEVC
  15. Format/Info : High Efficiency Video Coding
  16. Format profile : [email protected]@Main
  17. Codec ID : V_MPEGH/ISO/HEVC
  18. Duration : 1 h 54 min
  19. Bit rate : 4 377 kb/s
  20. Width : 1 920 pixels
  21. Height : 820 pixels
  22. Display aspect ratio : 2.35:1
  23. Frame rate mode : Constant
  24. Frame rate : 23.976 (24000/1001) FPS
  25. Color space : YUV
  26. Chroma subsampling : 4:2:0
  27. Bit depth : 8 bits
  28. Bits/(Pixel*Frame) : 0.116
  29. Stream size : 3.51 GiB (66%)
  30. Writing library : x265 2.8+1-478bfe2b7673:[Windows][GCC 7.3.0][64 bit] 8bit+10bit+12bit
  31. Encoding settings : cpuid=1111039 / frame-threads=4 / numa-pools=16 / wpp / no-pmode / no-pme / no-psnr / no-ssim / log-level=2 / input-csp=1 / input-res=1920x820 / interlace=0 / total-frames=165033 / level-idc=0 / high-tier=1 / uhd-bd=0 / ref=4 / no-allow-non-conformance / no-repeat-headers / annexb / no-aud / no-hrd / info / hash=0 / no-temporal-layers / open-gop / min-keyint=23 / keyint=250 / gop-lookahead=0 / bframes=4 / b-adapt=2 / b-pyramid / bframe-bias=0 / rc-lookahead=25 / lookahead-slices=4 / scenecut=40 / radl=0 / no-intra-refresh / ctu=64 / min-cu-size=8 / rect / no-amp / max-tu-size=32 / tu-inter-depth=1 / tu-intra-depth=1 / limit-tu=0 / rdoq-level=2 / dynamic-rd=0.00 / no-ssim-rd / signhide / no-tskip / nr-intra=0 / nr-inter=0 / no-constrained-intra / strong-intra-smoothing / max-merge=3 / limit-refs=3 / limit-modes / me=3 / subme=3 / merange=57 / temporal-mvp / weightp / no-weightb / no-analyze-src-pics / deblock=0:0 / sao / no-sao-non-deblock / rd=4 / no-early-skip / rskip / no-fast-intra / no-tskip-fast / no-cu-lossless / no-b-intra / no-splitrd-skip / rdpenalty=0 / psy-rd=2.00 / psy-rdoq=1.00 / no-rd-refine / no-lossless / cbqpoffs=0 / crqpoffs=0 / rc=crf / crf=19.9 / qcomp=0.60 / qpstep=4 / stats-write=0 / stats-read=0 / ipratio=1.40 / pbratio=1.30 / aq-mode=1 / aq-strength=1.00 / cutree / zone-count=0 / no-strict-cbr / qg-size=32 / no-rc-grain / qpmax=69 / qpmin=0 / no-const-vbv / sar=1 / overscan=0 / videoformat=5 / range=0 / colorprim=2 / transfer=2 / colormatrix=2 / chromaloc=0 / display-window=0 / max-cll=0,0 / min-luma=0 / max-luma=255 / log2-max-poc-lsb=8 / vui-timing-info / vui-hrd-info / slices=1 / no-opt-qp-pps / no-opt-ref-list-length-pps / no-multi-pass-opt-rps / scenecut-bias=0.05 / no-opt-cu-delta-qp / no-aq-motion / no-hdr / no-hdr-opt / no-dhdr10-opt / no-idr-recovery-sei / analysis-reuse-level=5 / scale-factor=0 / refine-intra=0 / refine-inter=0 / refine-mv=0 / no-limit-sao / ctu-info=0 / no-lowpass-dct / refine-mv-type=0 / copy-pic=1 / max-ausize-factor=1.0 / no-dynamic-refine / no-single-sei
  32. Default : Yes
  33. Forced : No
  34. Audio #1
  35. ID : 2
  36. Format : DTS
  37. Format/Info : Digital Theater Systems
  38. Codec ID : A_DTS
  39. Duration : 1 h 54 min
  40. Bit rate mode : Constant
  41. Bit rate : 768 kb/s
  42. Channel(s) : 6 channels
  43. Channel positions : Front: L C R, Side: L R, LFE
  44. Sampling rate : 48.0 kHz
  45. Frame rate : 93.750 FPS (512 SPF)
  46. Bit depth : 24 bits
  47. Compression mode : Lossy
  48. Stream size : 630 MiB (12%)
  49. Language : German
  50. Default : Yes
  51. Forced : No
  52. Audio #2
  53. ID : 3
  54. Format : DTS
  55. Format/Info : Digital Theater Systems
  56. Codec ID : A_DTS
  57. Duration : 1 h 54 min
  58. Bit rate mode : Constant
  59. Bit rate : 1 509 kb/s
  60. Channel(s) : 6 channels
  61. Channel positions : Front: L C R, Side: L R, LFE
  62. Sampling rate : 48.0 kHz
  63. Frame rate : 93.750 FPS (512 SPF)
  64. Bit depth : 24 bits
  65. Compression mode : Lossy
  66. Stream size : 1.21 GiB (23%)
  67. Language : English
  68. Default : No
  69. Forced : No
  70. Text #1
  71. ID : 4
  72. Format : UTF-8
  73. Codec ID : S_TEXT/UTF8
  74. Codec ID/Info : UTF-8 Plain Text
  75. Duration : 1 h 53 min
  76. Bit rate : 0 b/s
  77. Count of elements : 19
  78. Stream size : 685 Bytes (0%)
  79. Title : forced
  80. Language : German
  81. Default : Yes
  82. Forced : Yes
  83. Text #2
  84. ID : 5
  85. Format : VobSub
  86. Muxing mode : zlib
  87. Codec ID : S_VOBSUB
  88. Codec ID/Info : Picture based subtitle format used on DVDs
  89. Duration : 1 h 53 min
  90. Bit rate : 10.1 kb/s
  91. Count of elements : 1146
  92. Stream size : 8.23 MiB (0%)
  93. Title : complete
  94. Language : German
  95. Default : No
  96. Forced : No
  97. Menu
  98. 00:00:00.000 : en:Chapter 01
  99. 00:01:46.314 : en:Chapter 02
  100. 00:03:29.626 : en:Chapter 03
  101. 00:06:17.919 : en:Chapter 04
  102. 00:07:56.893 : en:Chapter 05
  103. 00:10:19.076 : en:Chapter 06
  104. 00:12:10.604 : en:Chapter 07
  105. 00:15:34.683 : en:Chapter 08
  106. 00:17:47.357 : en:Chapter 09
  107. 00:22:51.244 : en:Chapter 10
  108. 00:26:13.405 : en:Chapter 11
  109. 00:26:58.617 : en:Chapter 12
  110. 00:33:22.542 : en:Chapter 13
  111. 00:36:02.952 : en:Chapter 14
  112. 00:41:22.897 : en:Chapter 15
  113. 00:46:07.264 : en:Chapter 16
  114. 00:49:05.400 : en:Chapter 17
  115. 00:52:13.880 : en:Chapter 18
  116. 00:55:21.651 : en:Chapter 19
  117. 00:58:31.090 : en:Chapter 20
  118. 01:00:06.144 : en:Chapter 21
  119. 01:01:08.039 : en:Chapter 22
  120. 01:07:55.488 : en:Chapter 23
  121. 01:08:17.468 : en:Chapter 24
  122. 01:10:23.677 : en:Chapter 25
  123. 01:13:16.600 : en:Chapter 26
  124. 01:16:53.191 : en:Chapter 27
  125. 01:18:38.839 : en:Chapter 28
  126. 01:20:13.600 : en:Chapter 29
  127. 01:21:17.664 : en:Chapter 30
  128. 01:21:56.828 : en:Chapter 31
  129. 01:27:28.910 : en:Chapter 32
  130. 01:28:57.040 : en:Chapter 33
  131. 01:32:59.031 : en:Chapter 34
  132. 01:34:44.512 : en:Chapter 35
  133. 01:38:08.841 : en:Chapter 36
  134. 01:41:10.272 : en:Chapter 37
  135. 01:44:14.790 : en:Chapter 38
  136. 01:45:02.129 : en:Chapter 39
Comments powered by Disqus