1. http://MYDOMAIN.com:8096/mediabrowser/videos/58f0a20ab6730fd64ab39f190a42d850/hlsdynamic/main/19.ts?DeviceId=69edfd4a1490d9b76253c80d1f93429ae0d3e182&MediaSourceId=58f0a20ab6730fd64ab39f190a42d850&VideoCodec=h264&AudioCodec=aac&AudioStreamIndex=1&VideoBitrate=872000&AudioBitrate=128000&MaxAudioChannels=2&MaxHeight=480&Level=41&ClientTime=635738762695614244&Profile=high&PlaySessionId=8d06e1ded8d54429b3289df7283e7a18&api_key=6a90a294320e4c308ca01c29f7334c65
  2. {"Protocol":"File","Id":"58f0a20ab6730fd64ab39f190a42d850","Path":"\\\\HTPC\\Television\\Mr. Robot\\Season 01\\Mr. Robot - S01E01 - eps1.0_hellofriend.mov.mp4","Type":"Default","Container":"mp4","Name":"480P/H264/AAC","RunTimeTicks":38919680000,"ReadAtNativeFramerate":false,"SupportsTranscoding":true,"SupportsDirectStream":true,"SupportsDirectPlay":true,"RequiresOpening":false,"RequiresClosing":false,"VideoType":"VideoFile","MediaStreams":[{"Codec":"h264","Language":"und","IsInterlaced":false,"BitRate":1017842,"BitDepth":8,"RefFrames":2,"IsDefault":true,"IsForced":false,"Height":540,"Width":960,"AverageFrameRate":23.97608,"RealFrameRate":23.97602,"Profile":"High","Type":"Video","AspectRatio":"16:9","Index":0,"IsExternal":false,"IsTextSubtitleStream":false,"SupportsExternalStream":false,"PixelFormat":"yuv420p","Level":31,"IsAnamorphic":false,"IsCabac":false},{"Codec":"aac","Language":"eng","IsInterlaced":false,"ChannelLayout":"stereo","BitRate":159869,"Channels":2,"SampleRate":48000,"IsDefault":true,"IsForced":false,"Profile":"LC","Type":"Audio","Index":1,"IsExternal":false,"IsTextSubtitleStream":false,"SupportsExternalStream":false,"Level":0},{"Codec":"ac3","Language":"eng","IsInterlaced":false,"ChannelLayout":"stereo","BitRate":224000,"Channels":2,"SampleRate":48000,"IsDefault":false,"IsForced":false,"Type":"Audio","Index":2,"IsExternal":false,"IsTextSubtitleStream":false,"SupportsExternalStream":false,"Level":0},{"Codec":"mjpeg","IsInterlaced":false,"IsDefault":false,"IsForced":false,"Height":1400,"Width":1400,"RealFrameRate":90000,"Type":"EmbeddedImage","AspectRatio":"1:1","Index":3,"IsExternal":false,"IsTextSubtitleStream":false,"SupportsExternalStream":false,"PixelFormat":"yuvj444p","Level":-99,"IsAnamorphic":false}],"PlayableStreamFileNames":[],"Formats":["mov","mp4","m4a","3gp","3g2","mj2"],"Bitrate":1407519,"RequiredHttpHeaders":{}}
  3. C:\Users\Remote\AppData\Roaming\MediaBrowser-Server\ffmpeg\20150331\ffmpeg.exe -ss 00:00:57.000 -i file:"\\HTPC\Television\Mr. Robot\Season 01\Mr. Robot - S01E01 - eps1.0_hellofriend.mov.mp4" -map_metadata -1 -threads 0 -map 0:0 -map 0:1 -map -0:s -codec:v:0 libx264 -pix_fmt yuv420p -preset superfast -crf 23 -maxrate 872000 -bufsize 1744000 -vsync vfr -profile:v high -level 41 -force_key_frames expr:gte(t,n_forced*3) -vf "scale=min(iw\,720):trunc(ow/dar/2)*2" -flags +loop-global_header -sc_threshold 0 -output_ts_offset 00:00:57.000 -codec:a:0 aac -strict experimental -ac 2 -ab 128000 -af "adelay=1,aresample=async=1" -hls_time 3 -start_number 19 -hls_list_size 0 -y "C:\Users\Remote\AppData\Roaming\MediaBrowser-Server\transcoding-temp\11bb2e0ac9b8cef620da6ae2ce7e193d.m3u8"
  4. ffmpeg version N-71182-g5cba529 Copyright (c) 2000-2015 the FFmpeg developers
  5. built with gcc 4.9.2 (GCC)
  6. configuration: --enable-gpl --enable-version3 --disable-w32threads --enable-avisynth --enable-bzlib --enable-fontconfig --enable-frei0r --enable-gnutls --enable-iconv --enable-libass --enable-libbluray --enable-libbs2b --enable-libcaca --enable-libdcadec --enable-libfreetype --enable-libgme --enable-libgsm --enable-libilbc --enable-libmodplug --enable-libmp3lame --enable-libopencore-amrnb --enable-libopencore-amrwb --enable-libopenjpeg --enable-libopus --enable-librtmp --enable-libschroedinger --enable-libsoxr --enable-libspeex --enable-libtheora --enable-libtwolame --enable-libvidstab --enable-libvo-aacenc --enable-libvo-amrwbenc --enable-libvorbis --enable-libvpx --enable-libwavpack --enable-libwebp --enable-libx264 --enable-libx265 --enable-libxavs --enable-libxvid --enable-lzma --enable-decklink --enable-zlib
  7. libavutil 54. 21.100 / 54. 21.100
  8. libavcodec 56. 32.100 / 56. 32.100
  9. libavformat 56. 27.100 / 56. 27.100
  10. libavdevice 56. 4.100 / 56. 4.100
  11. libavfilter 5. 13.101 / 5. 13.101
  12. libswscale 3. 1.101 / 3. 1.101
  13. libswresample 1. 1.100 / 1. 1.100
  14. libpostproc 53. 3.100 / 53. 3.100
  15. [mov,mp4,m4a,3gp,3g2,mj2 @ 00000000003424a0] stream 0, timescale not set
  16. Input #0, mov,mp4,m4a,3gp,3g2,mj2, from 'file:\\HTPC\Television\Mr. Robot\Season 01\Mr. Robot - S01E01 - eps1.0_hellofriend.mov.mp4':
  17. Metadata:
  18. major_brand : mp42
  19. minor_version : 0
  20. compatible_brands: mp42isomavc1
  21. creation_time : 2015-05-27 09:46:32
  22. title : eps1.0_hellofriend.mov
  23. artist : Mr. Robot
  24. album_artist : Mr. Robot
  25. album : Mr. Robot, Season 1
  26. genre : Drama
  27. date : 2015-05-27T07:00:00Z
  28. description : MR. ROBOT follows Elliot, a cyber-security engineer by day and vigilante hacker by night, who gets
  29. synopsis : MR. ROBOT follows Elliot, a cyber-security engineer by day and vigilante hacker by night, who gets recruited by a mysterious underground group to destroy the firm he is paid to protect.
  30. encoder : HandBrake 0.9.9 2013052900
  31. Duration: 01:04:51.97, start: 0.000000, bitrate: 1407 kb/s
  32. Stream #0:0(und): Video: h264 (High) (avc1 / 0x31637661), yuv420p(tv, bt709), 960x540 [SAR 1:1 DAR 16:9], 1017 kb/s, 23.98 fps, 23.98 tbr, 90k tbn, 180k tbc (default)
  33. Metadata:
  34. creation_time : 2015-05-27 09:46:32
  35. encoder : JVT/AVC Coding
  36. Stream #0:1(eng): Audio: aac (LC) (mp4a / 0x6134706D), 48000 Hz, stereo, fltp, 159 kb/s (default)
  37. Metadata:
  38. creation_time : 2015-05-27 09:46:32
  39. Stream #0:2(eng): Audio: ac3 (ac-3 / 0x332D6361), 48000 Hz, stereo, fltp, 224 kb/s
  40. Metadata:
  41. creation_time : 2015-05-27 09:46:32
  42. Side data:
  43. unknown side data type 7 (4 bytes)
  44. Stream #0:3: Video: mjpeg, yuvj444p(pc, bt470bg/unknown/unknown), 1400x1400 [SAR 1:1 DAR 1:1], 90k tbr, 90k tbn, 90k tbc
  45. [libx264 @ 0000000004f6a800] using SAR=404/405
  46. [libx264 @ 0000000004f6a800] using cpu capabilities: MMX2 SSE2Fast LZCNT
  47. [libx264 @ 0000000004f6a800] profile High, level 4.1
  48. Output #0, hls, to 'C:\Users\Remote\AppData\Roaming\MediaBrowser-Server\transcoding-temp\11bb2e0ac9b8cef620da6ae2ce7e193d.m3u8':
  49. Metadata:
  50. encoder : Lavf56.27.100
  51. Stream #0:0: Video: h264 (libx264), yuv420p, 720x404 [SAR 404:405 DAR 16:9], q=-1--1, max. 872 kb/s, 23.98 fps, 90k tbn, 23.98 tbc (default)
  52. Metadata:
  53. encoder : Lavc56.32.100 libx264
  54. Stream #0:1: Audio: aac, 48000 Hz, stereo, fltp, 128 kb/s (default)
  55. Metadata:
  56. encoder : Lavc56.32.100 aac
  57. Stream mapping:
  58. Stream #0:0 -> #0:0 (h264 (native) -> h264 (libx264))
  59. Stream #0:1 -> #0:1 (aac (native) -> aac (native))
  60. Press [q] to stop, [?] for help
  61. frame= 72 fps=0.0 q=22.0 size=N/A time=00:00:03.34 bitrate=N/A
  62. frame= 168 fps=168 q=22.0 size=N/A time=00:00:07.16 bitrate=N/A
  63. frame= 268 fps=178 q=24.0 size=N/A time=00:00:11.37 bitrate=N/A
  64. frame= 370 fps=184 q=21.0 size=N/A time=00:00:15.68 bitrate=N/A
  65. frame= 462 fps=184 q=21.0 size=N/A time=00:00:19.56 bitrate=N/A
  66. frame= 555 fps=184 q=20.0 size=N/A time=00:00:23.29 bitrate=N/A
  67. frame= 640 fps=182 q=24.0 size=N/A time=00:00:26.73 bitrate=N/A
  68. frame= 736 fps=183 q=23.0 size=N/A time=00:00:30.76 bitrate=N/A
  69. frame= 820 fps=181 q=24.0 size=N/A time=00:00:34.36 bitrate=N/A
  70. frame= 891 fps=177 q=23.0 size=N/A time=00:00:37.33 bitrate=N/A
  71. frame= 964 fps=175 q=22.0 size=N/A time=00:00:40.32 bitrate=N/A
  72. frame= 1038 fps=172 q=23.0 size=N/A time=00:00:43.45 bitrate=N/A
  73. frame= 1144 fps=175 q=23.0 size=N/A time=00:00:47.87 bitrate=N/A
  74. frame= 1252 fps=178 q=22.0 size=N/A time=00:00:52.28 bitrate=N/A
  75. frame= 1355 fps=180 q=22.0 size=N/A time=00:00:56.59 bitrate=N/A
  76. frame= 1458 fps=182 q=22.0 size=N/A time=00:01:01.07 bitrate=N/A
  77. frame= 1542 fps=181 q=20.0 size=N/A time=00:01:04.66 bitrate=N/A
  78. frame= 1643 fps=182 q=20.0 size=N/A time=00:01:08.84 bitrate=N/A
  79. frame= 1740 fps=183 q=23.0 size=N/A time=00:01:12.91 bitrate=N/A
  80. frame= 1842 fps=184 q=21.0 size=N/A time=00:01:17.05 bitrate=N/A
  81. frame= 1940 fps=184 q=23.0 size=N/A time=00:01:21.08 bitrate=N/A
  82. frame= 2036 fps=185 q=19.0 size=N/A time=00:01:25.26 bitrate=N/A
  83. frame= 2138 fps=185 q=20.0 size=N/A time=00:01:29.45 bitrate=N/A
  84. frame= 2242 fps=186 q=24.0 size=N/A time=00:01:33.63 bitrate=N/A
  85. frame= 2340 fps=187 q=20.0 size=N/A time=00:01:37.66 bitrate=N/A
  86. frame= 2448 fps=188 q=20.0 size=N/A time=00:01:42.14 bitrate=N/A
  87. frame= 2550 fps=188 q=24.0 size=N/A time=00:01:46.62 bitrate=N/A
  88. frame= 2648 fps=189 q=18.0 size=N/A time=00:01:50.80 bitrate=N/A
  89. frame= 2752 fps=189 q=19.0 size=N/A time=00:01:55.11 bitrate=N/A
  90. frame= 2864 fps=190 q=21.0 size=N/A time=00:01:59.65 bitrate=N/A
  91. frame= 2968 fps=191 q=21.0 size=N/A time=00:02:04.03 bitrate=N/A
  92. frame= 3076 fps=192 q=21.0 size=N/A time=00:02:08.59 bitrate=N/A
  93. frame= 3176 fps=192 q=24.0 size=N/A time=00:02:12.60 bitrate=N/A
  94. frame= 3251 fps=191 q=22.0 size=N/A time=00:02:15.74 bitrate=N/A
  95. frame= 3348 fps=191 q=18.0 size=N/A time=00:02:19.77 bitrate=N/A
  96. frame= 3465 fps=192 q=25.0 size=N/A time=00:02:24.70 bitrate=N/A
  97. frame= 3569 fps=192 q=21.0 size=N/A time=00:02:29.18 bitrate=N/A
  98. frame= 3681 fps=193 q=24.0 size=N/A time=00:02:33.81 bitrate=N/A
  99. frame= 3768 fps=193 q=18.0 size=N/A time=00:02:37.35 bitrate=N/A
  100. frame= 3872 fps=193 q=20.0 size=N/A time=00:02:41.57 bitrate=N/A
  101. frame= 3976 fps=193 q=21.0 size=N/A time=00:02:46.20 bitrate=N/A
  102. frame= 4072 fps=193 q=22.0 size=N/A time=00:02:50.11 bitrate=N/A
  103. frame= 4180 fps=194 q=21.0 size=N/A time=00:02:54.54 bitrate=N/A
  104. frame= 4283 fps=194 q=22.0 size=N/A time=00:02:58.75 bitrate=N/A
  105. frame= 4378 fps=194 q=23.0 size=N/A time=00:03:02.78 bitrate=N/A
  106. frame= 4478 fps=194 q=20.0 size=N/A time=00:03:07.11 bitrate=N/A
  107. frame= 4588 fps=195 q=22.0 size=N/A time=00:03:11.46 bitrate=N/A
  108. frame= 4696 fps=195 q=22.0 size=N/A time=00:03:16.09 bitrate=N/A
  109. frame= 4787 fps=195 q=21.0 size=N/A time=00:03:19.80 bitrate=N/A
  110. frame= 4880 fps=195 q=21.0 size=N/A time=00:03:23.69 bitrate=N/A
  111. frame= 4993 fps=195 q=22.0 size=N/A time=00:03:28.46 bitrate=N/A
  112. frame= 5087 fps=195 q=23.0 size=N/A time=00:03:32.35 bitrate=N/A
  113. frame= 5194 fps=195 q=23.0 size=N/A time=00:03:36.83 bitrate=N/A
  114. frame= 5288 fps=195 q=23.0 size=N/A time=00:03:40.71 bitrate=N/A
  115. frame= 5400 fps=196 q=19.0 size=N/A time=00:03:45.34 bitrate=N/A
  116. frame= 5484 fps=195 q=23.0 size=N/A time=00:03:48.80 bitrate=N/A
  117. frame= 5608 fps=196 q=21.0 size=N/A time=00:03:54.17 bitrate=N/A
  118. frame= 5725 fps=197 q=23.0 size=N/A time=00:03:58.93 bitrate=N/A
  119. frame= 5852 fps=198 q=22.0 size=N/A time=00:04:04.18 bitrate=N/A
  120. frame= 5948 fps=198 q=23.0 size=N/A time=00:04:08.19 bitrate=N/A
  121. frame= 6060 fps=198 q=23.0 size=N/A time=00:04:12.82 bitrate=N/A
  122. frame= 6165 fps=198 q=21.0 size=N/A time=00:04:17.30 bitrate=N/A
  123. frame= 6280 fps=199 q=21.0 size=N/A time=00:04:22.08 bitrate=N/A
  124. frame= 6384 fps=199 q=20.0 size=N/A time=00:04:26.41 bitrate=N/A
  125. frame= 6496 fps=199 q=21.0 size=N/A time=00:04:31.27 bitrate=N/A
  126. frame= 6590 fps=199 q=23.0 size=N/A time=00:04:35.07 bitrate=N/A
  127. frame= 6704 fps=199 q=22.0 size=N/A time=00:04:39.72 bitrate=N/A
  128. frame= 6812 fps=200 q=24.0 size=N/A time=00:04:44.18 bitrate=N/A
  129. frame= 6932 fps=200 q=18.0 size=N/A time=00:04:49.28 bitrate=N/A
  130. frame= 7047 fps=201 q=23.0 size=N/A time=00:04:54.18 bitrate=N/A
  131. frame= 7139 fps=200 q=20.0 size=N/A time=00:04:58.06 bitrate=N/A
  132. frame= 7228 fps=200 q=21.0 size=N/A time=00:05:01.65 bitrate=N/A
  133. frame= 7340 fps=200 q=20.0 size=N/A time=00:05:06.28 bitrate=N/A
  134. frame= 7440 fps=200 q=24.0 size=N/A time=00:05:10.57 bitrate=N/A
  135. frame= 7540 fps=200 q=20.0 size=N/A time=00:05:14.66 bitrate=N/A
  136. frame= 7632 fps=200 q=22.0 size=N/A time=00:05:18.40 bitrate=N/A
  137. frame= 7724 fps=200 q=23.0 size=N/A time=00:05:22.38 bitrate=N/A
  138. frame= 7804 fps=199 q=25.0 size=N/A time=00:05:25.56 bitrate=N/A
  139. frame= 7894 fps=199 q=23.0 size=N/A time=00:05:29.42 bitrate=N/A
  140. frame= 8000 fps=199 q=18.0 size=N/A time=00:05:33.90 bitrate=N/A
  141. frame= 8128 fps=200 q=25.0 size=N/A time=00:05:39.15 bitrate=N/A
  142. frame= 8244 fps=200 q=23.0 size=N/A time=00:05:43.93 bitrate=N/A
  143. frame= 8352 fps=200 q=24.0 size=N/A time=00:05:48.39 bitrate=N/A
  144. frame= 8466 fps=201 q=20.0 size=N/A time=00:05:53.32 bitrate=N/A
  145. frame= 8576 fps=201 q=24.0 size=N/A time=00:05:57.93 bitrate=N/A
  146. frame= 8686 fps=201 q=21.0 size=N/A time=00:06:02.58 bitrate=N/A
  147. frame= 8800 fps=202 q=22.0 size=N/A time=00:06:07.31 bitrate=N/A
  148. frame= 8912 fps=202 q=23.0 size=N/A time=00:06:11.86 bitrate=N/A
  149. frame= 9024 fps=202 q=23.0 size=N/A time=00:06:16.46 bitrate=N/A
  150. frame= 9132 fps=202 q=24.0 size=N/A time=00:06:20.94 bitrate=N/A
  151. frame= 9224 fps=202 q=24.0 size=N/A time=00:06:25.13 bitrate=N/A
  152. frame= 9300 fps=201 q=26.0 size=N/A time=00:06:28.11 bitrate=N/A
  153. frame= 9392 fps=201 q=24.0 size=N/A time=00:06:31.93 bitrate=N/A
  154. frame= 9488 fps=201 q=24.0 size=N/A time=00:06:35.90 bitrate=N/A
  155. frame= 9564 fps=201 q=22.0 size=N/A time=00:06:39.01 bitrate=N/A
  156. frame= 9662 fps=200 q=24.0 size=N/A time=00:06:43.20 bitrate=N/A
  157. frame= 9760 fps=200 q=25.0 size=N/A time=00:06:47.23 bitrate=N/A
  158. frame= 9856 fps=200 q=25.0 size=N/A time=00:06:51.30 bitrate=N/A
  159. frame= 9959 fps=200 q=24.0 size=N/A time=00:06:55.59 bitrate=N/A
  160. frame=10048 fps=200 q=23.0 size=N/A time=00:06:59.32 bitrate=N/A
  161. frame=10160 fps=200 q=25.0 size=N/A time=00:07:03.95 bitrate=N/A
  162. frame=10234 fps=200 q=25.0 size=N/A time=00:07:07.09 bitrate=N/A
  163. frame=10333 fps=200 q=25.0 size=N/A time=00:07:11.27 bitrate=N/A
  164. frame=10440 fps=200 q=22.0 size=N/A time=00:07:15.71 bitrate=N/A
  165. frame=10532 fps=200 q=22.0 size=N/A time=00:07:19.48 bitrate=N/A
  166. frame=10643 fps=200 q=23.0 size=N/A time=00:07:24.11 bitrate=N/A
  167. frame=10734 fps=200 q=25.0 size=N/A time=00:07:27.85 bitrate=N/A
  168. frame=10820 fps=200 q=19.0 size=N/A time=00:07:31.45 bitrate=N/A
  169. frame=10924 fps=200 q=20.0 size=N/A time=00:07:36.00 bitrate=N/A
  170. frame=11032 fps=200 q=21.0 size=N/A time=00:07:40.26 bitrate=N/A
  171. frame=11131 fps=200 q=21.0 size=N/A time=00:07:44.42 bitrate=N/A
  172. frame=11212 fps=199 q=21.0 size=N/A time=00:07:47.92 bitrate=N/A
  173. frame=11300 fps=199 q=22.0 size=N/A time=00:07:51.53 bitrate=N/A
  174. frame=11412 fps=199 q=21.0 size=N/A time=00:07:56.24 bitrate=N/A
  175. frame=11496 fps=199 q=22.0 size=N/A time=00:07:59.68 bitrate=N/A
  176. frame=11592 fps=199 q=26.0 size=N/A time=00:08:03.77 bitrate=N/A
  177. frame=11708 fps=199 q=21.0 size=N/A time=00:08:08.46 bitrate=N/A
  178. frame=11806 fps=199 q=18.0 size=N/A time=00:08:12.65 bitrate=N/A
  179. frame=11908 fps=199 q=22.0 size=N/A time=00:08:16.89 bitrate=N/A
  180. frame=11999 fps=199 q=20.0 size=N/A time=00:08:20.56 bitrate=N/A
  181. frame=12096 fps=199 q=21.0 size=N/A time=00:08:24.61 bitrate=N/A
  182. frame=12168 fps=199 q=24.0 size=N/A time=00:08:27.86 bitrate=N/A
  183. frame=12270 fps=199 q=19.0 size=N/A time=00:08:32.06 bitrate=N/A
  184. frame=12371 fps=199 q=20.0 size=N/A time=00:08:36.09 bitrate=N/A
  185. frame=12488 fps=199 q=23.0 size=N/A time=00:08:41.02 bitrate=N/A
  186. frame=12596 fps=199 q=22.0 size=N/A time=00:08:45.52 bitrate=N/A
  187. frame=12675 fps=199 q=22.0 size=N/A time=00:08:48.93 bitrate=N/A
  188. frame=12767 fps=199 q=21.0 size=N/A time=00:08:52.67 bitrate=N/A
  189. frame=12871 fps=199 q=22.0 size=N/A time=00:08:57.00 bitrate=N/A
  190. frame=12976 fps=199 q=23.0 size=N/A time=00:09:01.48 bitrate=N/A
  191. frame=13080 fps=199 q=23.0 size=N/A time=00:09:05.70 bitrate=N/A
  192. frame=13168 fps=199 q=26.0 size=N/A time=00:09:09.39 bitrate=N/A
  193. frame=13259 fps=199 q=25.0 size=N/A time=00:09:13.13 bitrate=N/A
  194. frame=13294 fps=197 q=22.0 size=N/A time=00:09:14.62 bitrate=N/A
  195. frame=13359 fps=197 q=25.0 size=N/A time=00:09:17.46 bitrate=N/A
  196. frame=13448 fps=197 q=22.0 size=N/A time=00:09:21.15 bitrate=N/A
  197. frame=13556 fps=197 q=24.0 size=N/A time=00:09:25.58 bitrate=N/A
  198. frame=13660 fps=197 q=22.0 size=N/A time=00:09:30.02 bitrate=N/A
  199. frame=13772 fps=197 q=22.0 size=N/A time=00:09:34.54 bitrate=N/A
  200. frame=13864 fps=197 q=24.0 size=N/A time=00:09:38.60 bitrate=N/A
  201. frame=13956 fps=197 q=24.0 size=N/A time=00:09:42.37 bitrate=N/A
  202. frame=14044 fps=197 q=28.0 size=N/A time=00:09:45.83 bitrate=N/A
  203. frame=14115 fps=196 q=30.0 size=N/A time=00:09:48.97 bitrate=N/A
  204. frame=14208 fps=196 q=23.0 size=N/A time=00:09:52.98 bitrate=N/A
  205. frame=14319 fps=197 q=16.0 size=N/A time=00:09:57.48 bitrate=N/A
  206. frame=14424 fps=197 q=16.0 size=N/A time=00:10:01.68 bitrate=N/A
  207. frame=14528 fps=197 q=23.0 size=N/A time=00:10:05.99 bitrate=N/A
  208. frame=14626 fps=197 q=23.0 size=N/A time=00:10:10.17 bitrate=N/A
  209. frame=14740 fps=197 q=15.0 size=N/A time=00:10:15.01 bitrate=N/A
  210. frame=14840 fps=197 q=21.0 size=N/A time=00:10:19.13 bitrate=N/A
  211. frame=14947 fps=197 q=21.0 size=N/A time=00:10:23.61 bitrate=N/A
  212. frame=15035 fps=197 q=21.0 size=N/A time=00:10:27.20 bitrate=N/A
  213. frame=15142 fps=197 q=23.0 size=N/A time=00:10:31.68 bitrate=N/A
  214. frame=15248 fps=197 q=21.0 size=N/A time=00:10:36.03 bitrate=N/A
  215. frame=15331 fps=197 q=21.0 size=N/A time=00:10:39.59 bitrate=N/A
  216. frame=15436 fps=197 q=19.0 size=N/A time=00:10:43.96 bitrate=N/A
  217. frame=15524 fps=197 q=20.0 size=N/A time=00:10:47.72 bitrate=N/A
  218. frame=15636 fps=197 q=19.0 size=N/A time=00:10:52.28 bitrate=N/A
  219. frame=15734 fps=197 q=19.0 size=N/A time=00:10:56.61 bitrate=N/A
  220. frame=15846 fps=197 q=21.0 size=N/A time=00:11:01.24 bitrate=N/A
  221. frame=15956 fps=197 q=19.0 size=N/A time=00:11:05.74 bitrate=N/A
  222. frame=16036 fps=197 q=21.0 size=N/A time=00:11:09.12 bitrate=N/A
  223. frame=16144 fps=197 q=22.0 size=N/A time=00:11:13.51 bitrate=N/A
  224. frame=16240 fps=197 q=19.0 size=N/A time=00:11:17.54 bitrate=N/A
  225. frame=16352 fps=197 q=21.0 size=N/A time=00:11:22.15 bitrate=N/A
  226. frame=16454 fps=197 q=20.0 size=N/A time=00:11:26.48 bitrate=N/A
  227. frame=16556 fps=197 q=25.0 size=N/A time=00:11:30.68 bitrate=N/A
  228. frame=16639 fps=197 q=24.0 size=N/A time=00:11:34.25 bitrate=N/A
  229. frame=16742 fps=197 q=26.0 size=N/A time=00:11:38.43 bitrate=N/A
  230. frame=16816 fps=197 q=32.0 size=N/A time=00:11:41.41 bitrate=N/A
  231. frame=16890 fps=197 q=22.0 size=N/A time=00:11:44.70 bitrate=N/A
  232. frame=16968 fps=196 q=28.0 size=N/A time=00:11:47.98 bitrate=N/A
  233. frame=17072 fps=196 q=21.0 size=N/A time=00:11:52.21 bitrate=N/A
  234. frame=17180 fps=197 q=19.0 size=N/A time=00:11:56.80 bitrate=N/A
  235. frame=17263 fps=196 q=25.0 size=N/A time=00:12:00.23 bitrate=N/A
  236. frame=17344 fps=196 q=20.0 size=N/A time=00:12:03.66 bitrate=N/A
  237. frame=17442 fps=196 q=21.0 size=N/A time=00:12:07.70 bitrate=N/A
  238. frame=17528 fps=196 q=23.0 size=N/A time=00:12:11.30 bitrate=N/A
  239. frame=17628 fps=196 q=21.0 size=N/A time=00:12:15.50 bitrate=N/A
  240. frame=17723 fps=196 q=21.0 size=N/A time=00:12:19.34 bitrate=N/A
  241. frame=17820 fps=196 q=21.0 size=N/A time=00:12:23.55 bitrate=N/A
  242. frame=17900 fps=196 q=21.0 size=N/A time=00:12:26.66 bitrate=N/A
  243. frame=17999 fps=196 q=24.0 size=N/A time=00:12:30.84 bitrate=N/A
  244. frame=18108 fps=196 q=17.0 size=N/A time=00:12:35.43 bitrate=N/A
  245. frame=18216 fps=196 q=19.0 size=N/A time=00:12:40.00 bitrate=N/A
  246. frame=18318 fps=196 q=19.0 size=N/A time=00:12:44.28 bitrate=N/A
  247. frame=18416 fps=196 q=18.0 size=N/A time=00:12:48.32 bitrate=N/A
  248. frame=18500 fps=196 q=20.0 size=N/A time=00:12:51.92 bitrate=N/A
  249. frame=18596 fps=196 q=17.0 size=N/A time=00:12:55.68 bitrate=N/A
  250. frame=18692 fps=196 q=21.0 size=N/A time=00:12:59.69 bitrate=N/A
  251. frame=18804 fps=196 q=18.0 size=N/A time=00:13:04.46 bitrate=N/A
  252. frame=18920 fps=196 q=22.0 size=N/A time=00:13:09.24 bitrate=N/A
  253. frame=19016 fps=196 q=18.0 size=N/A time=00:13:13.42 bitrate=N/A
  254. frame=19120 fps=196 q=19.0 size=N/A time=00:13:17.76 bitrate=N/A
  255. frame=19227 fps=196 q=19.0 size=N/A time=00:13:22.06 bitrate=N/A
  256. frame=19328 fps=196 q=22.0 size=N/A time=00:13:26.27 bitrate=N/A
  257. frame=19418 fps=196 q=21.0 size=N/A time=00:13:30.13 bitrate=N/A
  258. frame=19522 fps=196 q=22.0 size=N/A time=00:13:34.46 bitrate=N/A
  259. frame=19638 fps=196 q=23.0 size=N/A time=00:13:39.39 bitrate=N/A
  260. frame=19744 fps=197 q=19.0 size=N/A time=00:13:43.76 bitrate=N/A
  261. frame=19839 fps=197 q=21.0 size=N/A time=00:13:47.60 bitrate=N/A
  262. frame=19930 fps=196 q=21.0 size=N/A time=00:13:51.48 bitrate=N/A
  263. frame=20036 fps=197 q=20.0 size=N/A time=00:13:55.84 bitrate=N/A
  264. frame=20152 fps=197 q=24.0 size=N/A time=00:14:00.76 bitrate=N/A
  265. frame=20240 fps=197 q=22.0 size=N/A time=00:14:04.45 bitrate=N/A
  266. frame=20344 fps=197 q=17.0 size=N/A time=00:14:08.76 bitrate=N/A
  267. frame=20460 fps=197 q=21.0 size=N/A time=00:14:13.69 bitrate=N/A
  268. frame=20573 fps=197 q=20.0 size=N/A time=00:14:18.36 bitrate=N/A
  269. frame=20690 fps=197 q=20.0 size=N/A time=00:14:23.29 bitrate=N/A
  270. frame=20792 fps=197 q=22.0 size=N/A time=00:14:27.54 bitrate=N/A
  271. frame=20886 fps=197 q=21.0 size=N/A time=00:14:31.36 bitrate=N/A
  272. frame=20987 fps=197 q=23.0 size=N/A time=00:14:35.54 bitrate=N/A
  273. frame=21092 fps=197 q=24.0 size=N/A time=00:14:39.91 bitrate=N/A
  274. frame=21196 fps=197 q=19.0 size=N/A time=00:14:44.22 bitrate=N/A
  275. frame=21304 fps=197 q=24.0 size=N/A time=00:14:48.85 bitrate=N/A
  276. frame=21411 fps=197 q=25.0 size=N/A time=00:14:53.16 bitrate=N/A
  277. frame=21508 fps=197 q=20.0 size=N/A time=00:14:57.25 bitrate=N/A
  278. frame=21616 fps=197 q=22.0 size=N/A time=00:15:01.82 bitrate=N/A
  279. frame=21708 fps=197 q=24.0 size=N/A time=00:15:05.55 bitrate=N/A
  280. frame=21804 fps=197 q=20.0 size=N/A time=00:15:09.67 bitrate=N/A
  281. frame=21903 fps=197 q=22.0 size=N/A time=00:15:13.77 bitrate=N/A
  282. frame=21987 fps=197 q=15.0 size=N/A time=00:15:17.20 bitrate=N/A
  283. frame=22080 fps=197 q=24.0 size=N/A time=00:15:21.08 bitrate=N/A
  284. frame=22184 fps=197 q=23.0 size=N/A time=00:15:25.46 bitrate=N/A
  285. frame=22272 fps=197 q=22.0 size=N/A time=00:15:29.13 bitrate=N/A
  286. frame=22376 fps=197 q=20.0 size=N/A time=00:15:33.52 bitrate=N/A
  287. frame=22496 fps=197 q=20.0 size=N/A time=00:15:38.41 bitrate=N/A
  288. frame=22615 fps=198 q=23.0 size=N/A time=00:15:43.33 bitrate=N/A
  289. frame=22728 fps=198 q=21.0 size=N/A time=00:15:48.22 bitrate=N/A
  290. frame=22828 fps=198 q=22.0 size=N/A time=00:15:52.32 bitrate=N/A
  291. frame=22919 fps=198 q=22.0 size=N/A time=00:15:56.18 bitrate=N/A
  292. frame=23028 fps=198 q=24.0 size=N/A time=00:16:00.55 bitrate=N/A
  293. frame=23132 fps=198 q=20.0 size=N/A time=00:16:04.86 bitrate=N/A
  294. frame=23240 fps=198 q=21.0 size=N/A time=00:16:09.62 bitrate=N/A
  295. frame=23348 fps=198 q=19.0 size=N/A time=00:16:14.12 bitrate=N/A
  296. frame=23454 fps=198 q=24.0 size=N/A time=00:16:18.43 bitrate=N/A
  297. frame=23543 fps=198 q=22.0 size=N/A time=00:16:22.16 bitrate=N/A
  298. frame=23644 fps=198 q=19.0 size=N/A time=00:16:26.49 bitrate=N/A
  299. frame=23752 fps=198 q=25.0 size=N/A time=00:16:30.82 bitrate=N/A
  300. frame=23842 fps=198 q=24.0 size=N/A time=00:16:34.56 bitrate=N/A
  301. frame=23934 fps=198 q=26.0 size=N/A time=00:16:38.44 bitrate=N/A
  302. frame=24024 fps=198 q=24.0 size=N/A time=00:16:42.06 bitrate=N/A
  303. frame=24111 fps=198 q=23.0 size=N/A time=00:16:45.76 bitrate=N/A
  304. frame=24190 fps=197 q=20.0 size=N/A time=00:16:49.04 bitrate=N/A
  305. frame=24252 fps=197 q=21.0 size=N/A time=00:16:51.71 bitrate=N/A
  306. frame=24370 fps=197 q=21.0 size=N/A time=00:16:56.66 bitrate=N/A
  307. frame=24468 fps=197 q=28.0 size=N/A time=00:17:00.73 bitrate=N/A
  308. frame=24579 fps=197 q=18.0 size=N/A time=00:17:05.47 bitrate=N/A
  309. frame=24676 fps=197 q=20.0 size=N/A time=00:17:09.50 bitrate=N/A
  310. frame=24788 fps=197 q=26.0 size=N/A time=00:17:14.00 bitrate=N/A
  311. frame=24870 fps=197 q=25.0 size=N/A time=00:17:17.56 bitrate=N/A
  312. frame=24972 fps=197 q=24.0 size=N/A time=00:17:21.74 bitrate=N/A
  313. frame=25052 fps=197 q=23.0 size=N/A time=00:17:25.22 bitrate=N/A
  314. frame=25168 fps=197 q=23.0 size=N/A time=00:17:29.92 bitrate=N/A
  315. frame=25256 fps=197 q=22.0 size=N/A time=00:17:33.67 bitrate=N/A
  316. frame=25360 fps=197 q=23.0 size=N/A time=00:17:37.98 bitrate=N/A
  317. frame=25476 fps=197 q=25.0 size=N/A time=00:17:42.67 bitrate=N/A
  318. frame=25568 fps=197 q=23.0 size=N/A time=00:17:46.68 bitrate=N/A
  319. frame=25676 fps=197 q=23.0 size=N/A time=00:17:51.04 bitrate=N/A
  320. frame=25800 fps=198 q=22.0 size=N/A time=00:17:56.09 bitrate=N/A
  321. frame=25898 fps=198 q=20.0 size=N/A time=00:18:00.42 bitrate=N/A
  322. frame=26012 fps=198 q=23.0 size=N/A time=00:18:05.16 bitrate=N/A
  323. frame=26108 fps=198 q=21.0 size=N/A time=00:18:09.23 bitrate=N/A
  324. frame=26222 fps=198 q=21.0 size=N/A time=00:18:13.86 bitrate=N/A
  325. frame=26306 fps=198 q=17.0 size=N/A time=00:18:17.45 bitrate=N/A
  326. frame=26419 fps=198 q=22.0 size=N/A time=00:18:22.22 bitrate=N/A
  327. frame=26532 fps=198 q=23.0 size=N/A time=00:18:27.00 bitrate=N/A
  328. frame=26653 fps=198 q=19.0 size=N/A time=00:18:31.93 bitrate=N/A
  329. frame=26756 fps=198 q=25.0 size=N/A time=00:18:36.13 bitrate=N/A
  330. frame=26840 fps=198 q=24.0 size=N/A time=00:18:39.55 bitrate=N/A
  331. frame=26940 fps=198 q=16.0 size=N/A time=00:18:43.90 bitrate=N/A
  332. frame=27044 fps=198 q=15.0 size=N/A time=00:18:48.14 bitrate=N/A
  333. frame=27160 fps=198 q=22.0 size=N/A time=00:18:53.01 bitrate=N/A
  334. frame=27232 fps=198 q=25.0 size=N/A time=00:18:55.82 bitrate=N/A
  335. frame=27326 fps=198 q=21.0 size=N/A time=00:18:59.86 bitrate=N/A
  336. frame=27418 fps=198 q=24.0 size=N/A time=00:19:03.74 bitrate=N/A
  337. frame=27535 fps=198 q=21.0 size=N/A time=00:19:08.67 bitrate=N/A
  338. frame=27642 fps=198 q=21.0 size=N/A time=00:19:13.15 bitrate=N/A
  339. frame=27760 fps=198 q=21.0 size=N/A time=00:19:17.95 bitrate=N/A
  340. frame=27868 fps=198 q=20.0 size=N/A time=00:19:22.43 bitrate=N/A
  341. frame=27976 fps=198 q=19.0 size=N/A time=00:19:26.89 bitrate=N/A
  342. frame=28075 fps=198 q=22.0 size=N/A time=00:19:31.22 bitrate=N/A
  343. frame=28183 fps=198 q=22.0 size=N/A time=00:19:35.55 bitrate=N/A
  344. frame=28264 fps=198 q=23.0 size=N/A time=00:19:39.00 bitrate=N/A
  345. frame=28359 fps=198 q=22.0 size=N/A time=00:19:43.01 bitrate=N/A
  346. frame=28438 fps=198 q=21.0 size=N/A time=00:19:46.30 bitrate=N/A
  347. frame=28536 fps=198 q=23.0 size=N/A time=00:19:50.33 bitrate=N/A
  348. frame=28643 fps=198 q=22.0 size=N/A time=00:19:54.81 bitrate=N/A
  349. frame=28756 fps=198 q=21.0 size=N/A time=00:19:59.46 bitrate=N/A
  350. frame=28854 fps=198 q=22.0 size=N/A time=00:20:03.62 bitrate=N/A
  351. frame=28941 fps=198 q=23.0 size=N/A time=00:20:07.36 bitrate=N/A
  352. frame=29056 fps=198 q=21.0 size=N/A time=00:20:12.01 bitrate=N/A
  353. frame=29151 fps=198 q=23.0 size=N/A time=00:20:16.02 bitrate=N/A
  354. frame=29252 fps=198 q=23.0 size=N/A time=00:20:20.35 bitrate=N/A
  355. frame=29360 fps=198 q=24.0 size=N/A time=00:20:24.68 bitrate=N/A
  356. frame=29448 fps=198 q=21.0 size=N/A time=00:20:28.28 bitrate=N/A
  357. frame=29548 fps=198 q=24.0 size=N/A time=00:20:32.59 bitrate=N/A
  358. frame=29650 fps=198 q=24.0 size=N/A time=00:20:36.92 bitrate=N/A
  359. frame=29756 fps=198 q=25.0 size=N/A time=00:20:41.36 bitrate=N/A
  360. frame=29836 fps=198 q=23.0 size=N/A time=00:20:44.58 bitrate=N/A
  361. frame=29930 fps=198 q=20.0 size=N/A time=00:20:48.57 bitrate=N/A
  362. frame=30020 fps=198 q=24.0 size=N/A time=00:20:52.35 bitrate=N/A
  363. frame=30116 fps=198 q=22.0 size=N/A time=00:20:56.44 bitrate=N/A
  364. frame=30216 fps=198 q=19.0 size=N/A time=00:21:00.41 bitrate=N/A
  365. frame=30308 fps=198 q=19.0 size=N/A time=00:21:04.25 bitrate=N/A
  366. frame=30412 fps=198 q=20.0 size=N/A time=00:21:08.62 bitrate=N/A
  367. frame=30496 fps=198 q=22.0 size=N/A time=00:21:12.02 bitrate=N/A
  368. frame=30592 fps=198 q=19.0 size=N/A time=00:21:16.24 bitrate=N/A
  369. frame=30704 fps=198 q=18.0 size=N/A time=00:21:20.98 bitrate=N/A
  370. frame=30822 fps=198 q=21.0 size=N/A time=00:21:25.76 bitrate=N/A
  371. frame=30928 fps=198 q=22.0 size=N/A time=00:21:30.09 bitrate=N/A
  372. frame=31020 fps=198 q=21.0 size=N/A time=00:21:34.05 bitrate=N/A
  373. frame=31119 fps=198 q=21.0 size=N/A time=00:21:38.00 bitrate=N/A
  374. frame=31206 fps=198 q=24.0 size=N/A time=00:21:41.73 bitrate=N/A
  375. frame=31300 fps=198 q=24.0 size=N/A time=00:21:45.62 bitrate=N/A
  376. frame=31392 fps=198 q=19.0 size=N/A time=00:21:49.50 bitrate=N/A
  377. frame=31483 fps=198 q=22.0 size=N/A time=00:21:53.23 bitrate=N/A
  378. frame=31552 fps=198 q=21.0 size=N/A time=00:21:56.30 bitrate=N/A
  379. frame=31640 fps=198 q=18.0 size=N/A time=00:21:59.82 bitrate=N/A
  380. frame=31748 fps=198 q=22.0 size=N/A time=00:22:04.35 bitrate=N/A
  381. frame=31860 fps=198 q=20.0 size=N/A time=00:22:09.04 bitrate=N/A
  382. frame=31972 fps=198 q=21.0 size=N/A time=00:22:13.76 bitrate=N/A
  383. frame=32072 fps=198 q=25.0 size=N/A time=00:22:17.72 bitrate=N/A
  384. frame=32164 fps=198 q=25.0 size=N/A time=00:22:21.61 bitrate=N/A
  385. frame=32264 fps=198 q=21.0 size=N/A time=00:22:25.81 bitrate=N/A
  386. frame=32352 fps=198 q=22.0 size=N/A time=00:22:29.52 bitrate=N/A
  387. frame=32444 fps=198 q=23.0 size=N/A time=00:22:33.40 bitrate=N/A
  388. frame=32544 fps=198 q=21.0 size=N/A time=00:22:37.52 bitrate=N/A
  389. frame=32623 fps=198 q=22.0 size=N/A time=00:22:40.87 bitrate=N/A
  390. frame=32707 fps=197 q=19.0 size=N/A time=00:22:44.30 bitrate=N/A
  391. frame=32792 fps=197 q=19.0 size=N/A time=00:22:47.74 bitrate=N/A
  392. frame=32883 fps=197 q=21.0 size=N/A time=00:22:51.62 bitrate=N/A
  393. frame=32968 fps=197 q=18.0 size=N/A time=00:22:55.08 bitrate=N/A
  394. frame=33052 fps=197 q=22.0 size=N/A time=00:22:58.75 bitrate=N/A
  395. frame=33147 fps=197 q=22.0 size=N/A time=00:23:02.67 bitrate=N/A
  396. frame=33251 fps=197 q=22.0 size=N/A time=00:23:07.00 bitrate=N/A
  397. frame=33356 fps=197 q=21.0 size=N/A time=00:23:11.33 bitrate=N/A
  398. frame=33464 fps=197 q=21.0 size=N/A time=00:23:15.96 bitrate=N/A
  399. frame=33552 fps=197 q=26.0 size=N/A time=00:23:19.65 bitrate=N/A
  400. frame=33620 fps=197 q=25.0 size=N/A time=00:23:22.43 bitrate=N/A
  401. frame=33676 fps=197 q=25.0 size=N/A time=00:23:24.62 bitrate=N/A
  402. frame=33752 fps=197 q=24.0 size=N/A time=00:23:28.00 bitrate=N/A
  403. frame=33859 fps=197 q=23.0 size=N/A time=00:23:32.39 bitrate=N/A
  404. frame=33952 fps=197 q=24.0 size=N/A time=00:23:36.29 bitrate=N/A
  405. frame=34067 fps=197 q=23.0 size=N/A time=00:23:41.05 bitrate=N/A
  406. frame=34155 fps=197 q=22.0 size=N/A time=00:23:44.64 bitrate=N/A
  407. frame=34251 fps=197 q=25.0 size=N/A time=00:23:48.67 bitrate=N/A
  408. frame=34340 fps=197 q=21.0 size=N/A time=00:23:52.46 bitrate=N/A
  409. frame=34436 fps=197 q=23.0 size=N/A time=00:23:56.56 bitrate=N/A
  410. frame=34540 fps=197 q=22.0 size=N/A time=00:24:00.76 bitrate=N/A
  411. frame=34608 fps=196 q=22.0 size=N/A time=00:24:03.62 bitrate=N/A
  412. frame=34692 fps=196 q=22.0 size=N/A time=00:24:07.06 bitrate=N/A
  413. frame=34768 fps=196 q=24.0 size=N/A time=00:24:10.34 bitrate=N/A
  414. frame=34868 fps=196 q=22.0 size=N/A time=00:24:14.50 bitrate=N/A
  415. frame=34948 fps=196 q=21.0 size=N/A time=00:24:17.83 bitrate=N/A
  416. frame=35055 fps=196 q=24.0 size=N/A time=00:24:22.27 bitrate=N/A
  417. frame=35143 fps=196 q=22.0 size=N/A time=00:24:25.85 bitrate=N/A
  418. frame=35248 fps=196 q=24.0 size=N/A time=00:24:30.20 bitrate=N/A
  419. frame=35348 fps=196 q=23.0 size=N/A time=00:24:34.38 bitrate=N/A
  420. frame=35447 fps=196 q=21.0 size=N/A time=00:24:38.54 bitrate=N/A
  421. frame=35542 fps=196 q=19.0 size=N/A time=00:24:42.58 bitrate=N/A
  422. frame=35612 fps=196 q=24.0 size=N/A time=00:24:45.46 bitrate=N/A
  423. frame=35704 fps=196 q=23.0 size=N/A time=00:24:49.30 bitrate=N/A
  424. frame=35784 fps=196 q=21.0 size=N/A time=00:24:52.75 bitrate=N/A
  425. frame=35876 fps=196 q=21.0 size=N/A time=00:24:56.49 bitrate=N/A
  426. frame=35988 fps=196 q=23.0 size=N/A time=00:25:01.09 bitrate=N/A
  427. frame=36092 fps=196 q=24.0 size=N/A time=00:25:05.49 bitrate=N/A
  428. frame=36192 fps=196 q=22.0 size=N/A time=00:25:09.61 bitrate=N/A
  429. frame=36274 fps=196 q=22.0 size=N/A time=00:25:13.19 bitrate=N/A
  430. frame=36368 fps=196 q=23.0 size=N/A time=00:25:16.97 bitrate=N/A
  431. frame=36450 fps=196 q=23.0 size=N/A time=00:25:20.51 bitrate=N/A
  432. frame=36530 fps=196 q=24.0 size=N/A time=00:25:23.79 bitrate=N/A
  433. frame=36608 fps=195 q=21.0 size=N/A time=00:25:26.97 bitrate=N/A
  434. frame=36704 fps=195 q=24.0 size=N/A time=00:25:31.22 bitrate=N/A
  435. frame=36790 fps=195 q=19.0 size=N/A time=00:25:34.69 bitrate=N/A
  436. frame=36883 fps=195 q=24.0 size=N/A time=00:25:38.58 bitrate=N/A
  437. frame=36980 fps=195 q=20.0 size=N/A time=00:25:42.63 bitrate=N/A
  438. frame=37092 fps=195 q=23.0 size=N/A time=00:25:47.24 bitrate=N/A
  439. frame=37196 fps=195 q=19.0 size=N/A time=00:25:51.59 bitrate=N/A
  440. frame=37298 fps=196 q=25.0 size=N/A time=00:25:55.90 bitrate=N/A
  441. frame=37397 fps=196 q=27.0 size=N/A time=00:25:59.93 bitrate=N/A
  442. frame=37494 fps=196 q=22.0 size=N/A time=00:26:03.96 bitrate=N/A
  443. frame=37578 fps=195 q=23.0 size=N/A time=00:26:07.55 bitrate=N/A
  444. frame=37656 fps=195 q=21.0 size=N/A time=00:26:10.68 bitrate=N/A
  445. frame=37748 fps=195 q=23.0 size=N/A time=00:26:14.57 bitrate=N/A
  446. frame=37830 fps=195 q=23.0 size=N/A time=00:26:18.00 bitrate=N/A
  447. frame=37931 fps=195 q=23.0 size=N/A time=00:26:22.18 bitrate=N/A
  448. frame=38048 fps=195 q=23.0 size=N/A time=00:26:26.98 bitrate=N/A
  449. frame=38136 fps=195 q=22.0 size=N/A time=00:26:30.80 bitrate=N/A
  450. frame=38248 fps=195 q=20.0 size=N/A time=00:26:35.34 bitrate=N/A
  451. frame=38343 fps=195 q=20.0 size=N/A time=00:26:39.36 bitrate=N/A
  452. frame=38444 fps=195 q=19.0 size=N/A time=00:26:43.54 bitrate=N/A
  453. frame=38534 fps=195 q=22.0 size=N/A time=00:26:47.57 bitrate=N/A
  454. frame=38620 fps=195 q=21.0 size=N/A time=00:26:50.85 bitrate=N/A
  455. frame=38682 fps=195 q=24.0 size=N/A time=00:26:53.69 bitrate=N/A
  456. frame=38788 fps=195 q=24.0 size=N/A time=00:26:57.98 bitrate=N/A
  457. frame=38876 fps=195 q=22.0 size=N/A time=00:27:01.63 bitrate=N/A
  458. frame=38980 fps=195 q=21.0 size=N/A time=00:27:05.96 bitrate=N/A
  459. frame=39076 fps=195 q=22.0 size=N/A time=00:27:09.99 bitrate=N/A
  460. frame=39176 fps=195 q=21.0 size=N/A time=00:27:14.09 bitrate=N/A
  461. frame=39266 fps=195 q=21.0 size=N/A time=00:27:18.03 bitrate=N/A
  462. frame=39352 fps=195 q=23.0 size=N/A time=00:27:21.53 bitrate=N/A
  463. frame=39451 fps=195 q=22.0 size=N/A time=00:27:25.65 bitrate=N/A
  464. frame=39528 fps=195 q=22.0 size=N/A time=00:27:28.81 bitrate=N/A
  465. frame=39622 fps=195 q=21.0 size=N/A time=00:27:32.82 bitrate=N/A
  466. frame=39701 fps=195 q=22.0 size=N/A time=00:27:36.10 bitrate=N/A
  467. frame=39812 fps=195 q=21.0 size=N/A time=00:27:40.60 bitrate=N/A
  468. frame=39926 fps=195 q=23.0 size=N/A time=00:27:45.36 bitrate=N/A
  469. frame=40022 fps=195 q=21.0 size=N/A time=00:27:49.39 bitrate=N/A
  470. frame=40112 fps=195 q=20.0 size=N/A time=00:27:53.23 bitrate=N/A
  471. frame=40222 fps=195 q=23.0 size=N/A time=00:27:57.90 bitrate=N/A
  472. frame=40340 fps=195 q=22.0 size=N/A time=00:28:02.70 bitrate=N/A
  473. frame=40452 fps=195 q=20.0 size=N/A time=00:28:07.33 bitrate=N/A
  474. frame=40548 fps=195 q=24.0 size=N/A time=00:28:11.34 bitrate=N/A
  475. frame=40636 fps=195 q=24.0 size=N/A time=00:28:15.08 bitrate=N/A
  476. frame=40724 fps=195 q=25.0 size=N/A time=00:28:18.66 bitrate=N/A
  477. frame=40804 fps=195 q=22.0 size=N/A time=00:28:21.95 bitrate=N/A
  478. frame=40901 fps=195 q=23.0 size=N/A time=00:28:26.28 bitrate=N/A
  479. frame=40988 fps=195 q=17.0 size=N/A time=00:28:29.56 bitrate=N/A
  480. frame=41096 fps=195 q=23.0 size=N/A time=00:28:34.19 bitrate=N/A
  481. frame=41182 fps=195 q=23.0 size=N/A time=00:28:37.78 bitrate=N/A
  482. frame=41275 fps=195 q=22.0 size=N/A time=00:28:41.66 bitrate=N/A
  483. frame=41364 fps=195 q=25.0 size=N/A time=00:28:45.41 bitrate=N/A
  484. frame=41446 fps=195 q=22.0 size=N/A time=00:28:48.98 bitrate=N/A
  485. frame=41535 fps=195 q=23.0 size=N/A time=00:28:52.56 bitrate=N/A
  486. frame=41611 fps=195 q=25.0 size=N/A time=00:28:55.70 bitrate=N/A
  487. frame=41682 fps=194 q=21.0 size=N/A time=00:28:58.68 bitrate=N/A
  488. frame=41763 fps=194 q=22.0 size=N/A time=00:29:01.97 bitrate=N/A
  489. frame=41864 fps=194 q=22.0 size=N/A time=00:29:06.15 bitrate=N/A
  490. frame=41948 fps=194 q=25.0 size=N/A time=00:29:09.82 bitrate=N/A
  491. frame=42026 fps=194 q=25.0 size=N/A time=00:29:13.02 bitrate=N/A
  492. frame=42096 fps=194 q=21.0 size=N/A time=00:29:15.88 bitrate=N/A
  493. frame=42196 fps=194 q=23.0 size=N/A time=00:29:20.19 bitrate=N/A
  494. frame=42296 fps=194 q=24.0 size=N/A time=00:29:24.33 bitrate=N/A
  495. frame=42403 fps=194 q=22.0 size=N/A time=00:29:28.70 bitrate=N/A
  496. frame=42496 fps=194 q=20.0 size=N/A time=00:29:32.60 bitrate=N/A
  497. frame=42588 fps=194 q=18.0 size=N/A time=00:29:36.34 bitrate=N/A
  498. frame=42668 fps=194 q=20.0 size=N/A time=00:29:39.77 bitrate=N/A
  499. frame=42778 fps=194 q=23.0 size=N/A time=00:29:44.38 bitrate=N/A
  500. frame=42883 fps=194 q=24.0 size=N/A time=00:29:48.71 bitrate=N/A
  501. frame=42961 fps=194 q=20.0 size=N/A time=00:29:52.00 bitrate=N/A
  502. frame=43068 fps=194 q=21.0 size=N/A time=00:29:56.56 bitrate=N/A
  503. frame=43184 fps=194 q=19.0 size=N/A time=00:30:01.32 bitrate=N/A
  504. frame=43276 fps=194 q=21.0 size=N/A time=00:30:05.16 bitrate=N/A
  505. frame=43376 fps=194 q=20.0 size=N/A time=00:30:09.36 bitrate=N/A
  506. frame=43480 fps=194 q=22.0 size=N/A time=00:30:13.67 bitrate=N/A
  507. frame=43588 fps=194 q=22.0 size=N/A time=00:30:18.15 bitrate=N/A
  508. frame=43673 fps=194 q=25.0 size=N/A time=00:30:21.86 bitrate=N/A
  509. frame=43744 fps=194 q=23.0 size=N/A time=00:30:24.70 bitrate=N/A
  510. frame=43846 fps=194 q=22.0 size=N/A time=00:30:28.88 bitrate=N/A
  511. frame=43960 fps=194 q=24.0 size=N/A time=00:30:33.68 bitrate=N/A
  512. frame=44064 fps=194 q=19.0 size=N/A time=00:30:37.99 bitrate=N/A
  513. frame=44168 fps=194 q=19.0 size=N/A time=00:30:42.34 bitrate=N/A
  514. frame=44284 fps=194 q=19.0 size=N/A time=00:30:47.14 bitrate=N/A
  515. frame=44399 fps=194 q=20.0 size=N/A time=00:30:52.03 bitrate=N/A
  516. frame=44516 fps=194 q=21.0 size=N/A time=00:30:56.81 bitrate=N/A
  517. frame=44628 fps=195 q=23.0 size=N/A time=00:31:01.61 bitrate=N/A
  518. frame=44715 fps=194 q=22.0 size=N/A time=00:31:05.32 bitrate=N/A
  519. frame=44799 fps=194 q=21.0 size=N/A time=00:31:08.75 bitrate=N/A
  520. frame=44892 fps=194 q=23.0 size=N/A time=00:31:12.66 bitrate=N/A
  521. frame=44975 fps=194 q=21.0 size=N/A time=00:31:15.92 bitrate=N/A
  522. frame=45086 fps=194 q=20.0 size=N/A time=00:31:20.70 bitrate=N/A
  523. frame=45190 fps=194 q=21.0 size=N/A time=00:31:25.03 bitrate=N/A
  524. frame=45284 fps=194 q=20.0 size=N/A time=00:31:29.00 bitrate=N/A
  525. frame=45392 fps=194 q=21.0 size=N/A time=00:31:33.50 bitrate=N/A
  526. frame=45500 fps=194 q=19.0 size=N/A time=00:31:38.13 bitrate=N/A
  527. frame=45608 fps=195 q=23.0 size=N/A time=00:31:42.35 bitrate=N/A
  528. frame=45715 fps=195 q=24.0 size=N/A time=00:31:46.83 bitrate=N/A
  529. frame=45812 fps=195 q=24.0 size=N/A time=00:31:50.86 bitrate=N/A
  530. frame=45904 fps=195 q=25.0 size=N/A time=00:31:54.79 bitrate=N/A
  531. frame=45996 fps=195 q=21.0 size=N/A time=00:31:58.63 bitrate=N/A
  532. frame=46112 fps=195 q=24.0 size=N/A time=00:32:03.69 bitrate=N/A
  533. frame=46222 fps=195 q=19.0 size=N/A time=00:32:08.19 bitrate=N/A
  534. frame=46336 fps=195 q=20.0 size=N/A time=00:32:12.67 bitrate=N/A
  535. frame=46430 fps=195 q=23.0 size=N/A time=00:32:16.70 bitrate=N/A
  536. frame=46536 fps=195 q=20.0 size=N/A time=00:32:21.12 bitrate=N/A
  537. frame=46656 fps=195 q=20.0 size=N/A time=00:32:26.13 bitrate=N/A
  538. frame=46767 fps=195 q=23.0 size=N/A time=00:32:30.74 bitrate=N/A
  539. frame=46888 fps=195 q=17.0 size=N/A time=00:32:35.81 bitrate=N/A
  540. frame=46985 fps=195 q=21.0 size=N/A time=00:32:40.00 bitrate=N/A
  541. frame=47068 fps=195 q=19.0 size=N/A time=00:32:43.34 bitrate=N/A
  542. frame=47160 fps=195 q=20.0 size=N/A time=00:32:47.18 bitrate=N/A
  543. frame=47268 fps=195 q=22.0 size=N/A time=00:32:51.66 bitrate=N/A
  544. frame=47362 fps=195 q=18.0 size=N/A time=00:32:55.68 bitrate=N/A
  545. frame=47462 fps=195 q=20.0 size=N/A time=00:32:59.86 bitrate=N/A
  546. frame=47560 fps=195 q=24.0 size=N/A time=00:33:03.89 bitrate=N/A
  547. frame=47638 fps=195 q=25.0 size=N/A time=00:33:07.17 bitrate=N/A
  548. frame=47744 fps=195 q=21.0 size=N/A time=00:33:11.55 bitrate=N/A
  549. frame=47848 fps=195 q=23.0 size=N/A time=00:33:15.86 bitrate=N/A
  550. frame=47955 fps=195 q=22.0 size=N/A time=00:33:20.32 bitrate=N/A
  551. frame=48048 fps=195 q=20.0 size=N/A time=00:33:24.22 bitrate=N/A
  552. frame=48136 fps=195 q=25.0 size=N/A time=00:33:27.89 bitrate=N/A
  553. frame=48216 fps=195 q=23.0 size=N/A time=00:33:31.09 bitrate=N/A
  554. frame=48339 fps=195 q=23.0 size=N/A time=00:33:36.29 bitrate=N/A
  555. frame=48444 fps=195 q=24.0 size=N/A time=00:33:40.92 bitrate=N/A
  556. frame=48557 fps=195 q=25.0 size=N/A time=00:33:45.55 bitrate=N/A
  557. frame=48640 fps=195 q=26.0 size=N/A time=00:33:49.03 bitrate=N/A
  558. frame=48751 fps=195 q=19.0 size=N/A time=00:33:53.47 bitrate=N/A
  559. frame=48867 fps=195 q=22.0 size=N/A time=00:33:58.40 bitrate=N/A
  560. frame=48961 fps=195 q=24.0 size=N/A time=00:34:02.43 bitrate=N/A
  561. frame=49060 fps=195 q=24.0 size=N/A time=00:34:06.33 bitrate=N/A
  562. frame=49140 fps=195 q=25.0 size=N/A time=00:34:09.81 bitrate=N/A
  563. frame=49220 fps=195 q=22.0 size=N/A time=00:34:13.05 bitrate=N/A
  564. frame=49296 fps=195 q=24.0 size=N/A time=00:34:16.34 bitrate=N/A
  565. frame=49404 fps=195 q=21.0 size=N/A time=00:34:20.65 bitrate=N/A
  566. frame=49508 fps=195 q=23.0 size=N/A time=00:34:25.13 bitrate=N/A
  567. frame=49622 fps=195 q=20.0 size=N/A time=00:34:29.90 bitrate=N/A
  568. frame=49728 fps=195 q=21.0 size=N/A time=00:34:34.26 bitrate=N/A
  569. frame=49832 fps=195 q=22.0 size=N/A time=00:34:38.59 bitrate=N/A
  570. frame=49931 fps=195 q=25.0 size=N/A time=00:34:42.75 bitrate=N/A
  571. frame=50004 fps=195 q=25.0 size=N/A time=00:34:45.80 bitrate=N/A
  572. frame=50105 fps=195 q=23.0 size=N/A time=00:34:50.06 bitrate=N/A
  573. frame=50208 fps=195 q=20.0 size=N/A time=00:34:54.25 bitrate=N/A
  574. frame=50297 fps=195 q=22.0 size=N/A time=00:34:57.98 bitrate=N/A
  575. frame=50380 fps=195 q=19.0 size=N/A time=00:35:01.44 bitrate=N/A
  576. frame=50508 fps=195 q=20.0 size=N/A time=00:35:06.64 bitrate=N/A
  577. frame=50624 fps=195 q=18.0 size=N/A time=00:35:11.72 bitrate=N/A
  578. frame=50740 fps=195 q=20.0 size=N/A time=00:35:16.52 bitrate=N/A
  579. frame=50851 fps=195 q=22.0 size=N/A time=00:35:21.13 bitrate=N/A
  580. frame=50969 fps=195 q=20.0 size=N/A time=00:35:26.20 bitrate=N/A
  581. frame=51068 fps=195 q=20.0 size=N/A time=00:35:30.09 bitrate=N/A
  582. frame=51184 fps=195 q=22.0 size=N/A time=00:35:34.95 bitrate=N/A
  583. frame=51296 fps=195 q=24.0 size=N/A time=00:35:39.64 bitrate=N/A
  584. frame=51386 fps=195 q=22.0 size=N/A time=00:35:43.53 bitrate=N/A
  585. frame=51467 fps=195 q=18.0 size=N/A time=00:35:46.81 bitrate=N/A
  586. frame=51560 fps=195 q=22.0 size=N/A time=00:35:50.72 bitrate=N/A
  587. frame=51660 fps=195 q=23.0 size=N/A time=00:35:54.88 bitrate=N/A
  588. frame=51772 fps=195 q=21.0 size=N/A time=00:35:59.65 bitrate=N/A
  589. frame=51876 fps=195 q=19.0 size=N/A time=00:36:03.84 bitrate=N/A
  590. frame=51986 fps=195 q=21.0 size=N/A time=00:36:08.46 bitrate=N/A
  591. frame=52069 fps=195 q=20.0 size=N/A time=00:36:11.90 bitrate=N/A
  592. frame=52171 fps=195 q=20.0 size=N/A time=00:36:16.23 bitrate=N/A
  593. frame=52274 fps=195 q=20.0 size=N/A time=00:36:20.56 bitrate=N/A
  594. frame=52368 fps=195 q=19.0 size=N/A time=00:36:24.32 bitrate=N/A
  595. frame=52463 fps=195 q=20.0 size=N/A time=00:36:28.33 bitrate=N/A
  596. frame=52552 fps=195 q=21.0 size=N/A time=00:36:32.08 bitrate=N/A
  597. frame=52648 fps=195 q=18.0 size=N/A time=00:36:36.03 bitrate=N/A
  598. frame=52753 fps=195 q=22.0 size=N/A time=00:36:40.57 bitrate=N/A
  599. frame=52868 fps=195 q=21.0 size=N/A time=00:36:45.22 bitrate=N/A
  600. frame=52972 fps=195 q=18.0 size=N/A time=00:36:49.64 bitrate=N/A
  601. frame=53048 fps=195 q=24.0 size=N/A time=00:36:52.69 bitrate=N/A
  602. frame=53146 fps=195 q=25.0 size=N/A time=00:36:56.85 bitrate=N/A
  603. frame=53264 fps=195 q=25.0 size=N/A time=00:37:01.67 bitrate=N/A
  604. frame=53367 fps=195 q=24.0 size=N/A time=00:37:05.96 bitrate=N/A
  605. frame=53476 fps=195 q=25.0 size=N/A time=00:37:10.59 bitrate=N/A
  606. frame=53575 fps=195 q=22.0 size=N/A time=00:37:14.62 bitrate=N/A
  607. frame=53651 fps=195 q=23.0 size=N/A time=00:37:17.76 bitrate=N/A
  608. frame=53740 fps=195 q=21.0 size=N/A time=00:37:21.51 bitrate=N/A
  609. frame=53824 fps=195 q=24.0 size=N/A time=00:37:25.22 bitrate=N/A
  610. frame=53916 fps=195 q=24.0 size=N/A time=00:37:28.83 bitrate=N/A
  611. frame=54000 fps=195 q=25.0 size=N/A time=00:37:32.41 bitrate=N/A
  612. frame=54103 fps=195 q=25.0 size=N/A time=00:37:36.72 bitrate=N/A
  613. frame=54186 fps=195 q=22.0 size=N/A time=00:37:40.16 bitrate=N/A
  614. frame=54266 fps=195 q=25.0 size=N/A time=00:37:43.59 bitrate=N/A
  615. frame=54359 fps=195 q=25.0 size=N/A time=00:37:47.32 bitrate=N/A
  616. frame=54454 fps=195 q=24.0 size=N/A time=00:37:51.36 bitrate=N/A
  617. frame=54536 fps=195 q=28.0 size=N/A time=00:37:54.66 bitrate=N/A
  618. frame=54612 fps=195 q=23.0 size=N/A time=00:37:58.14 bitrate=N/A
  619. frame=54712 fps=195 q=22.0 size=N/A time=00:38:02.13 bitrate=N/A
  620. frame=54796 fps=195 q=25.0 size=N/A time=00:38:05.54 bitrate=N/A
  621. frame=54892 fps=195 q=23.0 size=N/A time=00:38:09.81 bitrate=N/A
  622. frame=55008 fps=195 q=23.0 size=N/A time=00:38:14.57 bitrate=N/A
  623. frame=55122 fps=195 q=25.0 size=N/A time=00:38:19.28 bitrate=N/A
  624. frame=55220 fps=195 q=24.0 size=N/A time=00:38:23.31 bitrate=N/A
  625. frame=55331 fps=195 q=21.0 size=N/A time=00:38:27.94 bitrate=N/A
  626. frame=55452 fps=195 q=22.0 size=N/A time=00:38:32.87 bitrate=N/A
  627. frame=55572 fps=195 q=22.0 size=N/A time=00:38:37.97 bitrate=N/A
  628. frame=55674 fps=195 q=22.0 size=N/A time=00:38:42.28 bitrate=N/A
  629. frame=55774 fps=195 q=24.0 size=N/A time=00:38:46.46 bitrate=N/A
  630. frame=55871 fps=195 q=22.0 size=N/A time=00:38:50.49 bitrate=N/A
  631. frame=55964 fps=195 q=23.0 size=N/A time=00:38:54.22 bitrate=N/A
  632. frame=56068 fps=195 q=23.0 size=N/A time=00:38:58.56 bitrate=N/A
  633. frame=56168 fps=195 q=21.0 size=N/A time=00:39:02.89 bitrate=N/A
  634. frame=56264 fps=195 q=24.0 size=N/A time=00:39:06.79 bitrate=N/A
  635. frame=56368 fps=195 q=23.0 size=N/A time=00:39:11.10 bitrate=N/A
  636. frame=56475 fps=195 q=24.0 size=N/A time=00:39:15.58 bitrate=N/A
  637. frame=56588 fps=195 q=22.0 size=N/A time=00:39:20.36 bitrate=N/A
  638. frame=56692 fps=195 q=26.0 size=N/A time=00:39:24.71 bitrate=N/A
  639. frame=56772 fps=195 q=25.0 size=N/A time=00:39:28.27 bitrate=N/A
  640. frame=56878 fps=195 q=25.0 size=N/A time=00:39:32.45 bitrate=N/A
  641. frame=56972 fps=195 q=25.0 size=N/A time=00:39:36.49 bitrate=N/A
  642. frame=57068 fps=195 q=25.0 size=N/A time=00:39:40.67 bitrate=N/A
  643. frame=57170 fps=195 q=21.0 size=N/A time=00:39:44.70 bitrate=N/A
  644. frame=57275 fps=195 q=23.0 size=N/A time=00:39:49.03 bitrate=N/A
  645. frame=57340 fps=195 q=25.0 size=N/A time=00:39:51.87 bitrate=N/A
  646. frame=57434 fps=195 q=21.0 size=N/A time=00:39:55.75 bitrate=N/A
  647. frame=57511 fps=195 q=24.0 size=N/A time=00:39:58.89 bitrate=N/A
  648. frame=57617 fps=195 q=21.0 size=N/A time=00:40:03.37 bitrate=N/A
  649. frame=57708 fps=195 q=25.0 size=N/A time=00:40:07.10 bitrate=N/A
  650. frame=57816 fps=195 q=23.0 size=N/A time=00:40:11.66 bitrate=N/A
  651. frame=57908 fps=195 q=-1.0 Lsize=N/A time=00:40:15.59 bitrate=N/A
  652. video:166496kB audio:37820kB subtitle:0kB other streams:0kB global headers:0kB muxing overhead: unknown
  653. [libx264 @ 0000000004f6a800] frame I:806 Avg QP:15.82 size: 22573
  654. [libx264 @ 0000000004f6a800] frame P:17455 Avg QP:17.51 size: 5631
  655. [libx264 @ 0000000004f6a800] frame B:39647 Avg QP:18.91 size: 1362
  656. [libx264 @ 0000000004f6a800] consecutive B-frames: 6.1% 6.1% 4.9% 82.9%
  657. [libx264 @ 0000000004f6a800] mb I I16..4: 13.2% 39.7% 47.1%
  658. [libx264 @ 0000000004f6a800] mb P I16..4: 7.0% 6.3% 1.8% P16..4: 60.0% 0.0% 0.0% 0.0% 0.0% skip:24.9%
  659. [libx264 @ 0000000004f6a800] mb B I16..4: 0.6% 0.4% 0.0% B16..8: 20.9% 0.0% 0.0% direct:13.2% skip:64.9% L0:35.7% L1:51.1% BI:13.2%
  660. [libx264 @ 0000000004f6a800] 8x8 transform intra:41.1% inter:39.9%
  661. [libx264 @ 0000000004f6a800] coded y,uvDC,uvAC intra: 52.7% 66.7% 38.9% inter: 9.5% 17.1% 0.5%
  662. [libx264 @ 0000000004f6a800] i16 v,h,dc,p: 62% 18% 14% 6%
  663. [libx264 @ 0000000004f6a800] i8 v,h,dc,ddl,ddr,vr,hd,vl,hu: 27% 16% 24% 3% 6% 6% 5% 5% 7%
  664. [libx264 @ 0000000004f6a800] i4 v,h,dc,ddl,ddr,vr,hd,vl,hu: 31% 22% 15% 3% 7% 5% 5% 5% 7%
  665. [libx264 @ 0000000004f6a800] i8c dc,h,v,p: 41% 22% 28% 9%
  666. [libx264 @ 0000000004f6a800] Weighted P-Frames: Y:1.5% UV:0.9%
  667. [libx264 @ 0000000004f6a800] kb/s:564.72

transcode-b3cb30ef-d42d-4138-97e0-6c203e061309.txt

Comments powered by Disqus