1. General
  2. Unique ID : 158289013749116811123347222535220152543 (0x77155AEAC34110429352F4270BBAC8DF)
  3. Complete name : unfired-kungfupanda3-x265.mkv
  4. Format : Matroska
  5. Format version : Version 2
  6. File size : 3.06 GiB
  7. Duration : 1 h 34 min
  8. Overall bit rate : 4 620 kb/s
  9. Encoded date : UTC 2018-11-06 03:53:36
  10. Writing application : mkvmerge v24.0.0 ('Beyond The Pale') 64-bit
  11. Writing library : libebml v1.3.6 + libmatroska v1.4.9
  12. Video
  13. ID : 1
  14. Format : HEVC
  15. Format/Info : High Efficiency Video Coding
  16. Format profile : [email protected]@Main
  17. Codec ID : V_MPEGH/ISO/HEVC
  18. Duration : 1 h 34 min
  19. Bit rate : 3 839 kb/s
  20. Width : 1 920 pixels
  21. Height : 816 pixels
  22. Display aspect ratio : 2.35:1
  23. Frame rate mode : Constant
  24. Frame rate : 23.976 (24000/1001) FPS
  25. Color space : YUV
  26. Chroma subsampling : 4:2:0
  27. Bit depth : 8 bits
  28. Bits/(Pixel*Frame) : 0.102
  29. Stream size : 2.55 GiB (83%)
  30. Writing library : x265 2.8+1-478bfe2b7673:[Windows][GCC 7.3.0][64 bit] 8bit+10bit+12bit
  31. Encoding settings : cpuid=1111039 / frame-threads=16 / numa-pools=16 / wpp / no-pmode / no-pme / no-psnr / no-ssim / log-level=2 / input-csp=1 / input-res=1920x816 / interlace=0 / total-frames=136536 / level-idc=0 / high-tier=1 / uhd-bd=0 / ref=4 / no-allow-non-conformance / no-repeat-headers / annexb / no-aud / no-hrd / info / hash=0 / no-temporal-layers / open-gop / min-keyint=23 / keyint=250 / gop-lookahead=0 / bframes=4 / b-adapt=2 / b-pyramid / bframe-bias=0 / rc-lookahead=25 / lookahead-slices=4 / scenecut=40 / radl=0 / no-intra-refresh / ctu=64 / min-cu-size=8 / rect / no-amp / max-tu-size=32 / tu-inter-depth=1 / tu-intra-depth=1 / limit-tu=0 / rdoq-level=2 / dynamic-rd=0.00 / no-ssim-rd / signhide / no-tskip / nr-intra=0 / nr-inter=0 / no-constrained-intra / strong-intra-smoothing / max-merge=3 / limit-refs=3 / limit-modes / me=3 / subme=3 / merange=57 / temporal-mvp / weightp / no-weightb / no-analyze-src-pics / deblock=0:0 / sao / no-sao-non-deblock / rd=4 / no-early-skip / rskip / no-fast-intra / no-tskip-fast / no-cu-lossless / no-b-intra / no-splitrd-skip / rdpenalty=0 / psy-rd=2.00 / psy-rdoq=1.00 / no-rd-refine / no-lossless / cbqpoffs=0 / crqpoffs=0 / rc=crf / crf=19.9 / qcomp=0.60 / qpstep=4 / stats-write=0 / stats-read=0 / ipratio=1.40 / pbratio=1.30 / aq-mode=1 / aq-strength=1.00 / cutree / zone-count=0 / no-strict-cbr / qg-size=32 / no-rc-grain / qpmax=69 / qpmin=0 / no-const-vbv / sar=1 / overscan=0 / videoformat=5 / range=0 / colorprim=2 / transfer=2 / colormatrix=2 / chromaloc=0 / display-window=0 / max-cll=0,0 / min-luma=0 / max-luma=255 / log2-max-poc-lsb=8 / vui-timing-info / vui-hrd-info / slices=1 / no-opt-qp-pps / no-opt-ref-list-length-pps / no-multi-pass-opt-rps / scenecut-bias=0.05 / no-opt-cu-delta-qp / no-aq-motion / no-hdr / no-hdr-opt / no-dhdr10-opt / no-idr-recovery-sei / analysis-reuse-level=5 / scale-factor=0 / refine-intra=0 / refine-inter=0 / refine-mv=0 / no-limit-sao / ctu-info=0 / no-lowpass-dct / refine-mv-type=0 / copy-pic=1 / max-ausize-factor=1.0 / no-dynamic-refine / no-single-sei
  32. Default : Yes
  33. Forced : No
  34. Audio
  35. ID : 2
  36. Format : DTS
  37. Format/Info : Digital Theater Systems
  38. Codec ID : A_DTS
  39. Duration : 1 h 34 min
  40. Bit rate mode : Constant
  41. Bit rate : 768 kb/s
  42. Channel(s) : 6 channels
  43. Channel layout : C L R Ls Rs LFE
  44. Sampling rate : 48.0 kHz
  45. Frame rate : 93.750 FPS (512 SPF)
  46. Bit depth : 24 bits
  47. Compression mode : Lossy
  48. Stream size : 521 MiB (17%)
  49. Language : German
  50. Default : Yes
  51. Forced : No
  52. Text
  53. ID : 3
  54. Format : PGS
  55. Muxing mode : zlib
  56. Codec ID : S_HDMV/PGS
  57. Codec ID/Info : Picture based subtitle format used on BDs/HD-DVDs
  58. Duration : 1 h 34 min
  59. Bit rate : 33.8 kb/s
  60. Count of elements : 2532
  61. Stream size : 22.7 MiB (1%)
  62. Title : complete
  63. Language : German
  64. Default : No
  65. Forced : No
  66. Menu
  67. 00:00:00.000 : en:Chapter 1
  68. 00:05:21.779 : en:Chapter 2
  69. 00:08:10.239 : en:Chapter 3
  70. 00:10:00.016 : en:Chapter 4
  71. 00:12:26.036 : en:Chapter 5
  72. 00:15:24.214 : en:Chapter 6
  73. 00:19:08.230 : en:Chapter 7
  74. 00:24:39.394 : en:Chapter 8
  75. 00:30:17.607 : en:Chapter 9
  76. 00:33:53.990 : en:Chapter 10
  77. 00:36:18.259 : en:Chapter 11
  78. 00:39:55.643 : en:Chapter 12
  79. 00:43:32.651 : en:Chapter 13
  80. 00:46:45.844 : en:Chapter 14
  81. 00:51:41.181 : en:Chapter 15
  82. 00:56:04.611 : en:Chapter 16
  83. 00:59:48.167 : en:Chapter 17
  84. 01:02:11.352 : en:Chapter 18
  85. 01:05:26.964 : en:Chapter 19
  86. 01:10:16.837 : en:Chapter 20
  87. 01:14:06.900 : en:Chapter 21
  88. 01:17:06.580 : en:Chapter 22
  89. 01:20:34.788 : en:Chapter 23
  90. 01:24:21.181 : en:Chapter 24
Comments powered by Disqus