1. General
  2. Unique ID : 173518087536839784806624409728315174680 (0x828A5E39B459029F26316DE9E85E2F18)
  3. Complete name : Zomboat!.S01.1080p.AMZN.WEB-DL.DD+2.0.H.264-Cinefeel/Zomboat!.S01E06.Episode.6.1080p.AMZN.WEB-DL.DD+2.0.H.264-Cinefeel.mkv
  4. Format : Matroska
  5. Format version : Version 4
  6. File size : 1.44 GiB
  7. Duration : 23 min 21 s
  8. Overall bit rate mode : Constant
  9. Overall bit rate : 8 844 kb/s
  10. Encoded date : UTC 2019-11-13 20:31:52
  11. Writing application : mkvmerge v27.0.0 ('Metropolis') 64-bit
  12. Writing library : libebml v1.3.6 + libmatroska v1.4.9
  13. Video
  14. ID : 2
  15. Format : AVC
  16. Format/Info : Advanced Video Codec
  17. Format profile : [email protected]
  18. Format settings : CABAC / 4 Ref Frames
  19. Format settings, CABAC : Yes
  20. Format settings, Reference frames : 4 frames
  21. Codec ID : V_MPEG4/ISO/AVC
  22. Duration : 23 min 21 s
  23. Bit rate mode : Constant
  24. Bit rate : 8 619 kb/s
  25. Nominal bit rate : 10 000 kb/s
  26. Width : 1 920 pixels
  27. Height : 1 080 pixels
  28. Display aspect ratio : 16:9
  29. Frame rate mode : Constant
  30. Frame rate : 25.000 FPS
  31. Color space : YUV
  32. Chroma subsampling : 4:2:0
  33. Bit depth : 8 bits
  34. Scan type : Progressive
  35. Bits/(Pixel*Frame) : 0.166
  36. Stream size : 1.41 GiB (97%)
  37. Default : Yes
  38. Forced : No
  39. Color range : Limited
  40. Color primaries : BT.709
  41. Transfer characteristics : BT.709
  42. Matrix coefficients : BT.709
  43. Audio
  44. ID : 1
  45. Format : E-AC-3
  46. Format/Info : Enhanced AC-3
  47. Commercial name : Dolby Digital Plus
  48. Codec ID : A_EAC3
  49. Duration : 23 min 21 s
  50. Bit rate mode : Constant
  51. Bit rate : 224 kb/s
  52. Channel(s) : 2 channels
  53. Channel layout : L R
  54. Sampling rate : 48.0 kHz
  55. Frame rate : 31.250 FPS (1536 SPF)
  56. Compression mode : Lossy
  57. Stream size : 37.4 MiB (3%)
  58. Language : English
  59. Service kind : Complete Main
  60. Default : Yes
  61. Forced : No
Comments powered by Disqus