1. General
  2. Complete name : C:\Users\ddddrelease\Desktop\Black.Widow.2021.WEBRip.x264-ION10\Black.Widow.2021.WEBRip.x264-ION10.mp4
  3. Format : MPEG-4
  4. Format profile : Base Media
  5. Codec ID : isom (isom/iso2/avc1/mp41)
  6. File size : 533 MiB
  7. Duration : 2 h 13 min
  8. Overall bit rate : 557 kb/s
  9. Movie name : ddddrelease rlsbb.ru
  10. Album : ddddrelease rlsbb.ru
  11. Album/Performer : ddddrelease rlsbb.ru
  12. Performer : ddddrelease rlsbb.ru
  13. Composer : ddddrelease rlsbb.ru
  14. Writing application : Lavf56.25.101
  15. Comment : ddddrelease rlsbb.ru
  16. Video
  17. ID : 1
  18. Format : AVC
  19. Format/Info : Advanced Video Codec
  20. Format profile : [email protected]
  21. Format settings : CABAC / 4 Ref Frames
  22. Format settings, CABAC : Yes
  23. Format settings, Reference frames : 4 frames
  24. Codec ID : avc1
  25. Codec ID/Info : Advanced Video Coding
  26. Duration : 2 h 13 min
  27. Bit rate : 440 kb/s
  28. Width : 720 pixels
  29. Height : 480 pixels
  30. Display aspect ratio : 3:2
  31. Frame rate mode : Constant
  32. Frame rate : 23.976 (24000/1001) FPS
  33. Color space : YUV
  34. Chroma subsampling : 4:2:0
  35. Bit depth : 8 bits
  36. Scan type : Progressive
  37. Bits/(Pixel*Frame) : 0.053
  38. Stream size : 421 MiB (79%)
  39. Writing library : x264 core 144 r2533 c8a773e
  40. Encoding settings : cabac=1 / ref=3 / deblock=1:0:0 / analyse=0x3:0x113 / me=hex / subme=7 / psy=1 / psy_rd=1.00:0.00 / mixed_ref=1 / me_range=16 / chroma_me=1 / trellis=1 / 8x8dct=1 / cqm=0 / deadzone=21,11 / fast_pskip=1 / chroma_qp_offset=-2 / threads=6 / lookahead_threads=1 / sliced_threads=0 / nr=0 / decimate=1 / interlaced=0 / bluray_compat=0 / constrained_intra=0 / bframes=3 / b_pyramid=2 / b_adapt=1 / b_bias=0 / direct=1 / weightb=1 / open_gop=0 / weightp=2 / keyint=250 / keyint_min=23 / scenecut=40 / intra_refresh=0 / rc_lookahead=40 / rc=abr / mbtree=1 / bitrate=440 / ratetol=1.0 / qcomp=0.60 / qpmin=0 / qpmax=69 / qpstep=4 / ip_ratio=1.40 / aq=1:1.00
  41. Codec configuration box : avcC
  42. Audio
  43. ID : 2
  44. Format : AAC LC
  45. Format/Info : Advanced Audio Codec Low Complexity
  46. Codec ID : mp4a-40-2
  47. Duration : 2 h 13 min
  48. Duration_LastFrame : -9 ms
  49. Bit rate mode : Constant
  50. Bit rate : 112 kb/s
  51. Channel(s) : 2 channels
  52. Channel layout : L R
  53. Sampling rate : 48.0 kHz
  54. Frame rate : 46.875 FPS (1024 SPF)
  55. Compression mode : Lossy
  56. Stream size : 107 MiB (20%)
  57. Language : English
  58. Default : Yes
  59. Alternate group : 1