1. General
  2. Complete name : C:\Users\ddddrelease\Downloads\Brothers.by.Blood.2020.1080p.BluRay.H264.AAC-RARBG.mp4 st=M8973EGJzw051nDUYXxoXg&e=1627112129 (convert-video-online.com).mp4
  3. Format : MPEG-4
  4. Format profile : Base Media
  5. Codec ID : isom (isom/iso2/avc1/mp41)
  6. File size : 491 MiB
  7. Duration : 1 h 30 min
  8. Overall bit rate : 759 kb/s
  9. Movie name : Brothers.by.Blood.2020.1080p.BluRay.H264.AAC-RARBG
  10. Writing application : Lavf58.45.100
  11. Comment : Brothers.by.Blood.2020.1080p.BluRay.H264.AAC-RARBG
  12. Video
  13. ID : 1
  14. Format : AVC
  15. Format/Info : Advanced Video Codec
  16. Format profile : [email protected]
  17. Format settings : CABAC / 4 Ref Frames
  18. Format settings, CABAC : Yes
  19. Format settings, Reference frames : 4 frames
  20. Codec ID : avc1
  21. Codec ID/Info : Advanced Video Coding
  22. Duration : 1 h 30 min
  23. Bit rate : 629 kb/s
  24. Width : 854 pixels
  25. Height : 358 pixels
  26. Display aspect ratio : 2.40:1
  27. Frame rate mode : Constant
  28. Frame rate : 25.000 FPS
  29. Color space : YUV
  30. Chroma subsampling : 4:2:0
  31. Bit depth : 8 bits
  32. Scan type : Progressive
  33. Bits/(Pixel*Frame) : 0.082
  34. Stream size : 404 MiB (82%)
  35. Writing library : x264 core 155 r2917 0a84d98
  36. Encoding settings : cabac=1 / ref=1 / deblock=1:0:0 / analyse=0x3:0x3 / me=dia / subme=1 / psy=1 / psy_rd=1.00:0.00 / mixed_ref=0 / me_range=16 / chroma_me=1 / trellis=0 / 8x8dct=1 / cqm=0 / deadzone=21,11 / fast_pskip=1 / chroma_qp_offset=0 / threads=11 / lookahead_threads=1 / sliced_threads=0 / nr=0 / decimate=1 / interlaced=0 / bluray_compat=0 / constrained_intra=0 / bframes=3 / b_pyramid=2 / b_adapt=1 / b_bias=0 / direct=1 / weightb=1 / open_gop=0 / weightp=1 / keyint=250 / keyint_min=25 / scenecut=40 / intra_refresh=0 / rc=abr / mbtree=0 / bitrate=629 / ratetol=1.0 / qcomp=0.60 / qpmin=0 / qpmax=69 / qpstep=4 / ip_ratio=1.40 / pb_ratio=1.30 / aq=1:1.00
  37. Codec configuration box : avcC
  38. Audio
  39. ID : 2
  40. Format : AAC LC
  41. Format/Info : Advanced Audio Codec Low Complexity
  42. Codec ID : mp4a-40-2
  43. Duration : 1 h 30 min
  44. Duration_LastFrame : -1 ms
  45. Bit rate mode : Constant
  46. Bit rate : 128 kb/s
  47. Channel(s) : 2 channels
  48. Channel layout : L R
  49. Sampling rate : 44.1 kHz
  50. Frame rate : 43.066 FPS (1024 SPF)
  51. Compression mode : Lossy
  52. Stream size : 82.8 MiB (17%)
  53. Language : English
  54. Default : Yes
  55. Alternate group : 1
Comments powered by Disqus