1. General
  2. Complete name : C:\Users\ddddrelease\Desktop\The.Dare.2019.BRRip.720x480p.subbed.h264.mp4.proper\The.Dare.2019.BRRip.XviD.MP3-XVID.mp4
  3. Format : MPEG-4
  4. Format profile : Base Media
  5. Codec ID : isom (isom/iso2/avc1/mp41)
  6. File size : 691 MiB
  7. Duration : 1 h 36 min
  8. Overall bit rate mode : Variable
  9. Overall bit rate : 1 000 kb/s
  10. Movie name : The.Dare.2019.BRRip.720x480p.subbed.h264.mp4.proper ddddrelease rlsbb.ru
  11. Performer : ddddrelease rlsbb.ru
  12. Composer : ddddrelease rlsbb.ru
  13. Genre :
  14. ContentType : Short Film
  15. Description : ddddrelease rlsbb.ru
  16. Tagged date : UTC 2021-07-23 06:59:22
  17. Writing application : Lavf58.12.100 / ddddrelease rlsbb.ru
  18. Comment : ddddrelease rlsbb.ru
  19. Video
  20. ID : 1
  21. Format : AVC
  22. Format/Info : Advanced Video Codec
  23. Format profile : [email protected]
  24. Format settings : CABAC / 2 Ref Frames
  25. Format settings, CABAC : Yes
  26. Format settings, Reference frames : 2 frames
  27. Format settings, GOP : N=1
  28. Codec ID : avc1
  29. Codec ID/Info : Advanced Video Coding
  30. Duration : 1 h 36 min
  31. Bit rate : 800 kb/s
  32. Width : 720 pixels
  33. Height : 480 pixels
  34. Display aspect ratio : 3:2
  35. Frame rate mode : Constant
  36. Frame rate : 23.976 (24000/1001) FPS
  37. Color space : YUV
  38. Chroma subsampling : 4:2:0
  39. Bit depth : 8 bits
  40. Scan type : Progressive
  41. Bits/(Pixel*Frame) : 0.097
  42. Stream size : 553 MiB (80%)
  43. Title : RARBG - The.Dare.2019.BRRip.XviD.MP3-XVID
  44. Codec configuration box : avcC
  45. Audio
  46. ID : 2
  47. Format : AAC LC
  48. Format/Info : Advanced Audio Codec Low Complexity
  49. Codec ID : mp4a-40-2
  50. Duration : 1 h 36 min
  51. Bit rate mode : Variable
  52. Bit rate : 192 kb/s
  53. Maximum bit rate : 210 kb/s
  54. Channel(s) : 2 channels
  55. Channel layout : L R
  56. Sampling rate : 44.1 kHz
  57. Frame rate : 43.066 FPS (1024 SPF)
  58. Compression mode : Lossy
  59. Stream size : 135 MiB (20%)
  60. Title : RARBG - The.Dare.2019.BRRip.XviD.MP3-XVID
  61. Default : Yes
  62. Alternate group : 1
Comments powered by Disqus