1. General
  2. Complete name : C:\Users\ddddrelease\Downloads\A.Scream.In.The.Streets.1973.1080p.BluRay.x264.AAC-.mp4 st=3WxUXVXHdDg3LZR2f41v7g&e=1627139339 (convert-video-online.com)(2).mp4
  3. Format : MPEG-4
  4. Format profile : Base Media
  5. Codec ID : isom (isom/iso2/avc1/mp41)
  6. File size : 1.43 GiB
  7. Duration : 1 h 30 min
  8. Overall bit rate : 2 257 kb/s
  9. Writing application : Lavf58.45.100
  10. Video
  11. ID : 1
  12. Format : AVC
  13. Format/Info : Advanced Video Codec
  14. Format profile : [email protected]
  15. Format settings : CABAC / 4 Ref Frames
  16. Format settings, CABAC : Yes
  17. Format settings, Reference frames : 4 frames
  18. Codec ID : avc1
  19. Codec ID/Info : Advanced Video Coding
  20. Duration : 1 h 30 min
  21. Bit rate : 2 197 kb/s
  22. Width : 1 440 pixels
  23. Height : 1 072 pixels
  24. Display aspect ratio : 4:3
  25. Frame rate mode : Constant
  26. Frame rate : 25.000 FPS
  27. Color space : YUV
  28. Chroma subsampling : 4:2:0
  29. Bit depth : 8 bits
  30. Scan type : Progressive
  31. Bits/(Pixel*Frame) : 0.057
  32. Stream size : 1.38 GiB (97%)
  33. Writing library : x264 core 155 r2917 0a84d98
  34. Encoding settings : cabac=1 / ref=1 / deblock=1:0:0 / analyse=0x3:0x3 / me=dia / subme=1 / psy=1 / psy_rd=1.00:0.00 / mixed_ref=0 / me_range=16 / chroma_me=1 / trellis=0 / 8x8dct=1 / cqm=0 / deadzone=21,11 / fast_pskip=1 / chroma_qp_offset=0 / threads=24 / lookahead_threads=4 / sliced_threads=0 / nr=0 / decimate=1 / interlaced=0 / bluray_compat=0 / constrained_intra=0 / bframes=3 / b_pyramid=2 / b_adapt=1 / b_bias=0 / direct=1 / weightb=1 / open_gop=0 / weightp=1 / keyint=250 / keyint_min=25 / scenecut=40 / intra_refresh=0 / rc=abr / mbtree=0 / bitrate=2197 / ratetol=1.0 / qcomp=0.60 / qpmin=0 / qpmax=69 / qpstep=4 / ip_ratio=1.40 / pb_ratio=1.30 / aq=1:1.00
  35. Codec configuration box : avcC
  36. Audio
  37. ID : 2
  38. Format : AAC LC
  39. Format/Info : Advanced Audio Codec Low Complexity
  40. Codec ID : mp4a-40-2
  41. Duration : 1 h 30 min
  42. Duration_LastFrame : -1 ms
  43. Bit rate mode : Constant
  44. Bit rate : 64.0 kb/s
  45. Channel(s) : 1 channel
  46. Channel layout : C
  47. Sampling rate : 44.1 kHz
  48. Frame rate : 43.066 FPS (1024 SPF)
  49. Compression mode : Lossy
  50. Stream size : 41.4 MiB (3%)
  51. Default : Yes
  52. Alternate group : 1
Comments powered by Disqus