1. Storyline:
  2. Terminator.1.1984.1080p.WEB-DL.DD5.1.H.264-ehMD
  3. A seemingly indestructible humanoid cyborg is sent from 2029 to 1984 to assassinate a waitress, whose unborn son will lead humanity in a war against the machines, while a soldier from that war is sent to protect her at all costs.
  4. Terminator.2.Judgment.Day.1991.1080p.WEB-DL.DD5.1.H.264-ehMD
  5. A cyborg, identical to the one who failed to kill Sarah Connor, must now protect her teenage son, John Connor, from a more advanced cyborg.
  6. Terminator.3.Rise.of.the.Machines.2003.1080p.WEB-DL.DD5.1.H.264-ehMD
  7. A cybernetic warrior from a post-apocalyptic future travels back in time to protect a 19-year old drifter and his future wife from a most advanced robotic assassin and to ensure they both survive a nuclear attack.
  8. Terminator.4.Salvation.2009.1080p.WEB-DL.DD5.1.H.264-ehMD
  9. In 2018, a mysterious new weapon in the war against the machines, half-human and half-machine, comes to John Connor on the eve of a resistance attack on Skynet. But whose side is he on, and can he be trusted?
  10. Terminator.5.Genisys.2015.1080p.WEB-DL.DD5.1.H.264-ehMD
  11. When John Connor, leader of the human resistance, sends Sgt. Kyle Reese back to 1984 to protect Sarah Connor and safeguard the future, an unexpected turn of events creates a fractured timeline.
  12. IMDB:
  13. http://www.imdb.com/title/tt0088247/
  14. http://www.imdb.com/title/tt0103064/
  15. http://www.imdb.com/title/tt0181852/
  16. http://www.imdb.com/title/tt0438488/
  17. http://www.imdb.com/title/tt1340138/
  18. [IMG]hxxp://lookpic.com/O/i2/781/WIB6wqz3.jpeg[/IMG]
  19. [IMG]hxxp://lookpic.com/O/i2/1467/HtRHaTpG.jpeg[/IMG]
  20. [IMG]hxxp://lookpic.com/O/i2/1677/FtbDrq55.jpeg[/IMG]
  21. [IMG]hxxp://lookpic.com/O/i2/711/tj4hT0u6.jpeg[/IMG]
  22. [IMG]hxxp://lookpic.com/O/i2/1604/qp9kGKOK.jpeg[/IMG]
  23. [IMG]hxxp://lookpic.com/O/i2/723/Gzx83hHZ.jpeg[/IMG]
  24. [IMG]hxxp://lookpic.com/O/i2/1514/ETY71QJT.jpeg[/IMG]
  25. [IMG]hxxp://lookpic.com/O/i2/1405/JDNgXUXe.jpeg[/IMG]
  26. General
  27. Unique ID : 229975949181895480143553032192360711993 (0xAD03C1B73608445C9346BCD062E00739)
  28. Complete name : Terminator.1.1984.1080p.WEB-DL.DD5.1.H.264-ehMD.mkv
  29. Format : Matroska
  30. Format version : Version 4 / Version 2
  31. File size : 4.06 GiB
  32. Duration : 1h 47mn
  33. Overall bit rate : 5 407 Kbps
  34. Encoded date : UTC 2015-12-15 05:31:27
  35. Writing application : mkvmerge v6.9.1 ('Blue Panther') 64bit built on Apr 18 2014 18:23:38
  36. Writing library : libebml v1.3.0 + libmatroska v1.4.1
  37. Video
  38. ID : 2
  39. Format : AVC
  40. Format/Info : Advanced Video Codec
  41. Format profile : [email protected]
  42. Format settings, CABAC : Yes
  43. Format settings, ReFrames : 4 frames
  44. Codec ID : V_MPEG4/ISO/AVC
  45. Duration : 1h 47mn
  46. Bit rate : 4 916 Kbps
  47. Width : 1 916 pixels
  48. Height : 1 036 pixels
  49. Display aspect ratio : 1.85:1
  50. Frame rate mode : Constant
  51. Frame rate : 23.976 fps
  52. Color space : YUV
  53. Chroma subsampling : 4:2:0
  54. Bit depth : 8 bits
  55. Scan type : Progressive
  56. Bits/(Pixel*Frame) : 0.103
  57. Stream size : 3.69 GiB (91%)
  58. Language : English
  59. Default : Yes
  60. Forced : No
  61. Color range : Limited
  62. Color primaries : BT.709
  63. Transfer characteristics : BT.709
  64. Matrix coefficients : BT.709
  65. Audio
  66. ID : 1
  67. Format : AC-3
  68. Format/Info : Audio Coding 3
  69. Mode extension : CM (complete main)
  70. Format settings, Endianness : Big
  71. Codec ID : A_AC3
  72. Duration : 1h 47mn
  73. Bit rate mode : Constant
  74. Bit rate : 384 Kbps
  75. Channel(s) : 6 channels
  76. Channel positions : Front: L C R, Side: L R, LFE
  77. Sampling rate : 48.0 KHz
  78. Frame rate : 31.250 fps (1536 spf)
  79. Compression mode : Lossy
  80. Stream size : 295 MiB (7%)
  81. Language : English
  82. Default : Yes
  83. Forced : No
  84. Menu
  85. 00:00:00.000 : en:Chapter 1
  86. 00:11:38.000 : en:Chapter 2
  87. 00:22:49.000 : en:Chapter 3
  88. 00:33:55.000 : en:Chapter 4
  89. 00:44:15.000 : en:Chapter 5
  90. 00:56:25.000 : en:Chapter 6
  91. 01:09:35.000 : en:Chapter 7
  92. 01:22:59.000 : en:Chapter 8
  93. 01:31:02.000 : en:Chapter 9
  94. 01:40:19.000 : en:Chapter 10
  95. General
  96. Unique ID : 189097076143197518209406607831555110832 (0x8E42C5AA9354A39BA6993ABEC01FF7B0)
  97. Complete name : Terminator.2.Judgment.Day.1991.1080p.WEB-DL.DD5.1.H.264-ehMD.mkv
  98. Format : Matroska
  99. Format version : Version 4 / Version 2
  100. File size : 4.50 GiB
  101. Duration : 2h 17mn
  102. Overall bit rate : 4 702 Kbps
  103. Encoded date : UTC 2015-12-15 00:25:55
  104. Writing application : mkvmerge v6.9.1 ('Blue Panther') 64bit built on Apr 18 2014 18:23:38
  105. Writing library : libebml v1.3.0 + libmatroska v1.4.1
  106. Video
  107. ID : 2
  108. Format : AVC
  109. Format/Info : Advanced Video Codec
  110. Format profile : [email protected]
  111. Format settings, CABAC : Yes
  112. Format settings, ReFrames : 5 frames
  113. Codec ID : V_MPEG4/ISO/AVC
  114. Duration : 2h 17mn
  115. Bit rate : 4 225 Kbps
  116. Width : 1 904 pixels
  117. Height : 814 pixels
  118. Display aspect ratio : 2.35:1
  119. Frame rate mode : Constant
  120. Frame rate : 23.976 fps
  121. Color space : YUV
  122. Chroma subsampling : 4:2:0
  123. Bit depth : 8 bits
  124. Scan type : Progressive
  125. Bits/(Pixel*Frame) : 0.114
  126. Stream size : 4.05 GiB (90%)
  127. Language : English
  128. Default : Yes
  129. Forced : No
  130. Color range : Limited
  131. Color primaries : BT.709
  132. Transfer characteristics : BT.709
  133. Matrix coefficients : BT.709
  134. Audio
  135. ID : 1
  136. Format : AC-3
  137. Format/Info : Audio Coding 3
  138. Mode extension : CM (complete main)
  139. Format settings, Endianness : Big
  140. Codec ID : A_AC3
  141. Duration : 2h 17mn
  142. Bit rate mode : Constant
  143. Bit rate : 384 Kbps
  144. Channel(s) : 6 channels
  145. Channel positions : Front: L C R, Side: L R, LFE
  146. Sampling rate : 48.0 KHz
  147. Frame rate : 31.250 fps (1536 spf)
  148. Compression mode : Lossy
  149. Stream size : 377 MiB (8%)
  150. Language : English
  151. Default : Yes
  152. Forced : No
  153. Menu
  154. 00:00:00.000 : en:Opening Sequence
  155. 00:09:41.000 : en:Now Get Off
  156. 00:18:24.000 : en:Dreams
  157. 00:27:28.000 : en:Get Down!
  158. 00:35:12.000 : en:You're Really Real
  159. 00:45:28.000 : en:Running Kinda Late
  160. 00:54:51.000 : en:Mom Wait!
  161. 01:03:18.000 : en:That's A Nice Bike
  162. 01:12:12.000 : en:She Always Plans Ahead
  163. 01:21:22.000 : en:We Gotta Stop Her
  164. 01:30:17.000 : en:Uncharted Territory
  165. 01:39:26.000 : en:Time To Go
  166. 01:48:27.000 : en:You Alright?
  167. 01:56:57.000 : en:Go Now!
  168. 02:07:52.000 : en:One More Chip
  169. 02:12:57.000 : en:End Credits
  170. General
  171. Unique ID : 217947917866914634076022254533371684520 (0xA3F73DFC78F3696D8B5CF2D74032E6A8)
  172. Complete name : Terminator.3.Rise.of.the.Machines.2003.1080p.WEB-DL.DD5.1.H.264-ehMD.mkv
  173. Format : Matroska
  174. Format version : Version 4 / Version 2
  175. File size : 3.65 GiB
  176. Duration : 1h 49mn
  177. Overall bit rate : 4 797 Kbps
  178. Encoded date : UTC 2015-12-15 05:25:00
  179. Writing application : mkvmerge v6.9.1 ('Blue Panther') 64bit built on Apr 18 2014 18:23:38
  180. Writing library : libebml v1.3.0 + libmatroska v1.4.1
  181. Video
  182. ID : 2
  183. Format : AVC
  184. Format/Info : Advanced Video Codec
  185. Format profile : [email protected]
  186. Format settings, CABAC : Yes
  187. Format settings, ReFrames : 5 frames
  188. Codec ID : V_MPEG4/ISO/AVC
  189. Duration : 1h 48mn
  190. Bit rate : 4 318 Kbps
  191. Width : 1 916 pixels
  192. Height : 788 pixels
  193. Display aspect ratio : 2.40:1
  194. Frame rate mode : Constant
  195. Frame rate : 23.976 fps
  196. Color space : YUV
  197. Chroma subsampling : 4:2:0
  198. Bit depth : 8 bits
  199. Scan type : Progressive
  200. Bits/(Pixel*Frame) : 0.119
  201. Stream size : 3.29 GiB (90%)
  202. Language : English
  203. Default : Yes
  204. Forced : No
  205. Color range : Limited
  206. Color primaries : BT.709
  207. Transfer characteristics : BT.709
  208. Matrix coefficients : BT.709
  209. Audio
  210. ID : 1
  211. Format : AC-3
  212. Format/Info : Audio Coding 3
  213. Mode extension : CM (complete main)
  214. Format settings, Endianness : Big
  215. Codec ID : A_AC3
  216. Duration : 1h 49mn
  217. Bit rate mode : Constant
  218. Bit rate : 384 Kbps
  219. Channel(s) : 6 channels
  220. Channel positions : Front: L C R, Side: L R, LFE
  221. Sampling rate : 48.0 KHz
  222. Frame rate : 31.250 fps (1536 spf)
  223. Compression mode : Lossy
  224. Stream size : 299 MiB (8%)
  225. Language : English
  226. Default : Yes
  227. Forced : No
  228. Menu
  229. 00:00:00.000 : en:My Name Is John Connor.
  230. 00:03:34.000 : en:Weight Of The Future.
  231. 00:05:40.000 : en:T-X Arrives.
  232. 00:09:10.000 : en:Humans In The Loop.
  233. 00:11:22.000 : en:Terminator Arrives.
  234. 00:16:17.000 : en:Quarrues Subdued.
  235. 00:20:20.000 : en:Recognition.
  236. 00:22:55.000 : en:Pedal To The Metal.
  237. 00:26:13.000 : en:You Must Live.
  238. 00:29:30.000 : en:Multivehicular.
  239. 00:32:26.000 : en:Target Acquired.
  240. 00:35:13.000 : en:Demolition Derby.
  241. 00:38:13.000 : en:Obsolete Design.
  242. 00:42:15.000 : en:Talk To The Hand.
  243. 00:43:47.000 : en:Supposed To Meet.
  244. 00:48:26.000 : en:Don't Do That.
  245. 00:51:46.000 : en:Useful Emotions And People.
  246. 00:53:53.000 : en:Not Human.
  247. 00:57:33.000 : en:Hearse Havoc.
  248. 01:00:05.000 : en:Judgement Day.
  249. 01:05:46.000 : en:Future Shock.
  250. 01:08:31.000 : en:Open To Attack.
  251. 01:10:46.000 : en:Switch On.
  252. 01:13:55.000 : en:Rise Of The Machines.
  253. 01:18:23.000 : en:Terminators Tangle.
  254. 01:21:13.000 : en:Magnetic Attraction.
  255. 01:24:48.000 : en:I Am A Machine!
  256. 01:28:56.000 : en:Two For The Future.
  257. 01:31:35.000 : en:They're Back.
  258. 01:33:40.000 : en:Terminated.
  259. 01:35:39.000 : en:Mission Accomplished.
  260. 01:39:01.000 : en:Our Destiny.
  261. 01:41:52.000 : en:End Credits.
  262. General
  263. Unique ID : 227700462285842283266190423159161761476 (0xAB4D838CC4D29895992A95ED11A02EC4)
  264. Complete name : Terminator.4.Salvation.2009.1080p.WEB-DL.DD5.1.H.264-ehMD.mkv
  265. Format : Matroska
  266. Format version : Version 4 / Version 2
  267. File size : 3.85 GiB
  268. Duration : 1h 54mn
  269. Overall bit rate : 4 808 Kbps
  270. Encoded date : UTC 2015-12-15 05:29:19
  271. Writing application : mkvmerge v6.9.1 ('Blue Panther') 64bit built on Apr 18 2014 18:23:38
  272. Writing library : libebml v1.3.0 + libmatroska v1.4.1
  273. Video
  274. ID : 2
  275. Format : AVC
  276. Format/Info : Advanced Video Codec
  277. Format profile : [email protected]
  278. Format settings, CABAC : Yes
  279. Format settings, ReFrames : 5 frames
  280. Format settings, GOP : N=1
  281. Codec ID : V_MPEG4/ISO/AVC
  282. Duration : 1h 54mn
  283. Bit rate : 4 329 Kbps
  284. Width : 1 920 pixels
  285. Height : 800 pixels
  286. Display aspect ratio : 2.40:1
  287. Frame rate mode : Constant
  288. Frame rate : 23.976 fps
  289. Color space : YUV
  290. Chroma subsampling : 4:2:0
  291. Bit depth : 8 bits
  292. Scan type : Progressive
  293. Bits/(Pixel*Frame) : 0.118
  294. Stream size : 3.46 GiB (90%)
  295. Language : English
  296. Default : Yes
  297. Forced : No
  298. Color range : Limited
  299. Color primaries : BT.709
  300. Transfer characteristics : BT.709
  301. Matrix coefficients : BT.709
  302. Audio
  303. ID : 1
  304. Format : AC-3
  305. Format/Info : Audio Coding 3
  306. Mode extension : CM (complete main)
  307. Format settings, Endianness : Big
  308. Codec ID : A_AC3
  309. Duration : 1h 54mn
  310. Bit rate mode : Constant
  311. Bit rate : 384 Kbps
  312. Channel(s) : 6 channels
  313. Channel positions : Front: L C R, Side: L R, LFE
  314. Sampling rate : 48.0 KHz
  315. Frame rate : 31.250 fps (1536 spf)
  316. Compression mode : Lossy
  317. Stream size : 315 MiB (8%)
  318. Language : English
  319. Default : Yes
  320. Forced : No
  321. Menu
  322. 00:00:00.000 : en:Death row Credits.
  323. 00:05:25.000 : en:R&D project.
  324. 00:10:09.000 : en:Survivors.
  325. 00:15:03.000 : en:Kill list.
  326. 00:17:59.000 : en:Out there alone.
  327. 00:21:01.000 : en:What happened here?
  328. 00:25:42.000 : en:You are the Resistance.
  329. 00:30:45.000 : en:Drive to stay alive.
  330. 00:34:50.000 : en:Harvester flareup.
  331. 00:40:32.000 : en:Moto-Terminator mayhem.
  332. 00:44:02.000 : en:Evasive maneuvers.
  333. 00:46:15.000 : en:On the same side.
  334. 00:51:59.000 : en:Not a good guy.
  335. 00:53:47.000 : en:Field test.
  336. 00:56:16.000 : en:Machine within.
  337. 01:02:42.000 : en:Identifications.
  338. 01:07:06.000 : en:Eyes on the machine.
  339. 01:10:42.000 : en:Hydrobots; his only hope.
  340. 01:14:57.000 : en:We are not machines.
  341. 01:19:25.000 : en:Infiltration in sync.
  342. 01:22:48.000 : en:Serve a purpose.
  343. 01:27:07.000 : en:John ConnorÂ’s killer.
  344. 01:30:34.000 : en:Nuclear life source.
  345. 01:34:40.000 : en:Intervention.
  346. 01:37:25.000 : en:Mortally wounded.
  347. 01:41:18.000 : en:Second chances.
  348. 01:46:46.000 : en:End Credits.
  349. General
  350. Unique ID : 182388288607508333863501536793234224804 (0x8936B4E73DF9247FA4F03317D6BFB6A4)
  351. Complete name : Terminator.5.Genisys.2015.1080p.WEB-DL.DD5.1.H.264-ehMD.mkv
  352. Format : Matroska
  353. Format version : Version 4 / Version 2
  354. File size : 4.28 GiB
  355. Duration : 2h 5mn
  356. Overall bit rate : 4 870 Kbps
  357. Encoded date : UTC 2015-12-15 05:26:58
  358. Writing application : mkvmerge v6.9.1 ('Blue Panther') 64bit built on Apr 18 2014 18:23:38
  359. Writing library : libebml v1.3.0 + libmatroska v1.4.1
  360. Video
  361. ID : 2
  362. Format : AVC
  363. Format/Info : Advanced Video Codec
  364. Format profile : [email protected]
  365. Format settings, CABAC : Yes
  366. Format settings, ReFrames : 5 frames
  367. Codec ID : V_MPEG4/ISO/AVC
  368. Duration : 2h 5mn
  369. Bit rate : 4 389 Kbps
  370. Width : 1 912 pixels
  371. Height : 800 pixels
  372. Display aspect ratio : 2.40:1
  373. Frame rate mode : Constant
  374. Frame rate : 23.976 fps
  375. Color space : YUV
  376. Chroma subsampling : 4:2:0
  377. Bit depth : 8 bits
  378. Scan type : Progressive
  379. Bits/(Pixel*Frame) : 0.120
  380. Stream size : 3.86 GiB (90%)
  381. Language : English
  382. Default : Yes
  383. Forced : No
  384. Color range : Limited
  385. Color primaries : BT.709
  386. Transfer characteristics : BT.709
  387. Matrix coefficients : BT.709
  388. Audio
  389. ID : 1
  390. Format : AC-3
  391. Format/Info : Audio Coding 3
  392. Mode extension : CM (complete main)
  393. Format settings, Endianness : Big
  394. Codec ID : A_AC3
  395. Duration : 2h 5mn
  396. Bit rate mode : Constant
  397. Bit rate : 384 Kbps
  398. Channel(s) : 6 channels
  399. Channel positions : Front: L C R, Side: L R, LFE
  400. Sampling rate : 48.0 KHz
  401. Frame rate : 31.250 fps (1536 spf)
  402. Compression mode : Lossy
  403. Stream size : 346 MiB (8%)
  404. Language : English
  405. Default : Yes
  406. Forced : No
  407. Menu
  408. 00:00:00.000 : en:Chapter 1
  409. 00:07:40.000 : en:Chapter 2
  410. 00:14:20.000 : en:Chapter 3
  411. 00:20:31.000 : en:Chapter 4
  412. 00:27:48.000 : en:Chapter 5
  413. 00:34:55.000 : en:Chapter 6
  414. 00:41:02.000 : en:Chapter 7
  415. 00:46:28.000 : en:Chapter 8
  416. 00:53:05.000 : en:Chapter 9
  417. 01:01:00.000 : en:Chapter 10
  418. 01:08:22.000 : en:Chapter 11
  419. 01:14:43.000 : en:Chapter 12
  420. 01:21:31.000 : en:Chapter 13
  421. 01:31:01.000 : en:Chapter 14
  422. 01:38:42.000 : en:Chapter 15
  423. 01:45:41.000 : en:Chapter 16
  424. 01:52:48.000 : en:Chapter 17
  425. 01:58:00.000 : en:Chapter 18
Comments powered by Disqus