1. General
  2. Unique ID : 59057674123754539991324489134241388610 (0x2C6E18244FEC5F51229F7404DCEA9842)
  3. Complete name : Sully.2016.BluRay.1080p.TrueHD.Atmos.7.1.AVC.REMUX-FraMeSToR.mkv
  4. Format : Matroska
  5. Format version : Version 4
  6. File size : 21.0 GiB
  7. Duration : 1 h 35 min
  8. Overall bit rate mode : Variable
  9. Overall bit rate : 31.4 Mb/s
  10. Movie name : Sully
  11. Encoded date : UTC 2016-12-06 16:48:51
  12. Writing application : mkvmerge v9.6.0 ('Slave To Your Mind') 64bit
  13. Writing library : libebml v1.3.4 + libmatroska v1.4.5
  14. Video
  15. ID : 1
  16. Format : AVC
  17. Format/Info : Advanced Video Codec
  18. Format profile : [email protected]
  19. Format settings : CABAC / 4 Ref Frames
  20. Format settings, CABAC : Yes
  21. Format settings, Reference frames : 4 frames
  22. Codec ID : V_MPEG4/ISO/AVC
  23. Duration : 1 h 35 min
  24. Bit rate mode : Variable
  25. Bit rate : 23.7 Mb/s
  26. Maximum bit rate : 30.0 Mb/s
  27. Width : 1 920 pixels
  28. Height : 1 080 pixels
  29. Display aspect ratio : 16:9
  30. Frame rate mode : Constant
  31. Frame rate : 23.976 (24000/1001) FPS
  32. Color space : YUV
  33. Chroma subsampling : 4:2:0
  34. Bit depth : 8 bits
  35. Scan type : Progressive
  36. Bits/(Pixel*Frame) : 0.477
  37. Stream size : 15.9 GiB (76%)
  38. Default : Yes
  39. Forced : No
  40. Audio #1
  41. ID : 2
  42. Format : MLP FBA 16-ch
  43. Format/Info : Meridian Lossless Packing FBA with 16-channel presentation
  44. Commercial name : Dolby TrueHD with Dolby Atmos
  45. Codec ID : A_TRUEHD
  46. Duration : 1 h 35 min
  47. Bit rate mode : Variable
  48. Bit rate : 6 798 kb/s
  49. Maximum bit rate : 12.0 Mb/s
  50. Channel(s) : 8 channels
  51. Channel layout : L R C LFE Ls Rs Lb Rb
  52. Sampling rate : 48.0 kHz
  53. Frame rate : 1 200.000 FPS (40 SPF)
  54. Compression mode : Lossless
  55. Stream size : 4.55 GiB (22%)
  56. Title : TrueHD Atmos 7.1
  57. Language : English
  58. Default : Yes
  59. Forced : No
  60. Number of dynamic objects : 11
  61. Bed channel count : 1 channel
  62. Bed channel configuration : LFE
  63. Audio #2
  64. ID : 3
  65. Format : AC-3
  66. Format/Info : Audio Coding 3
  67. Commercial name : Dolby Digital
  68. Codec ID : A_AC3
  69. Duration : 1 h 35 min
  70. Bit rate mode : Constant
  71. Bit rate : 640 kb/s
  72. Channel(s) : 6 channels
  73. Channel layout : L R C LFE Ls Rs
  74. Sampling rate : 48.0 kHz
  75. Frame rate : 31.250 FPS (1536 SPF)
  76. Compression mode : Lossy
  77. Stream size : 439 MiB (2%)
  78. Title : AC3 5.1
  79. Language : English
  80. Service kind : Complete Main
  81. Default : No
  82. Forced : No
  83. Text #1
  84. ID : 4
  85. Format : PGS
  86. Codec ID : S_HDMV/PGS
  87. Codec ID/Info : Picture based subtitle format used on BDs/HD-DVDs
  88. Duration : 1 h 35 min
  89. Bit rate : 48.4 kb/s
  90. Count of elements : 3284
  91. Stream size : 33.1 MiB (0%)
  92. Title : English (SDH)
  93. Language : English
  94. Default : Yes
  95. Forced : No
  96. Text #2
  97. ID : 5
  98. Format : PGS
  99. Codec ID : S_HDMV/PGS
  100. Codec ID/Info : Picture based subtitle format used on BDs/HD-DVDs
  101. Duration : 1 h 35 min
  102. Bit rate : 35.2 kb/s
  103. Count of elements : 2716
  104. Stream size : 24.1 MiB (0%)
  105. Title : French
  106. Language : French
  107. Default : No
  108. Forced : No
  109. Text #3
  110. ID : 6
  111. Format : PGS
  112. Codec ID : S_HDMV/PGS
  113. Codec ID/Info : Picture based subtitle format used on BDs/HD-DVDs
  114. Duration : 1 h 35 min
  115. Bit rate : 40.9 kb/s
  116. Count of elements : 3038
  117. Stream size : 28.0 MiB (0%)
  118. Title : Spanish (Latin American)
  119. Language : Spanish
  120. Default : No
  121. Forced : No
  122. Text #4
  123. ID : 7
  124. Format : PGS
  125. Codec ID : S_HDMV/PGS
  126. Codec ID/Info : Picture based subtitle format used on BDs/HD-DVDs
  127. Duration : 1 h 35 min
  128. Bit rate : 44.4 kb/s
  129. Count of elements : 3104
  130. Stream size : 30.4 MiB (0%)
  131. Title : Portuguese (Brazilian)
  132. Language : Portuguese
  133. Default : No
  134. Forced : No
  135. Menu
  136. 00:00:00.000 : en:00:00:00.000
  137. 00:11:12.505 : en:00:11:12.505
  138. 00:18:06.168 : en:00:18:06.168
  139. 00:29:57.921 : en:00:29:57.921
  140. 00:38:55.416 : en:00:38:55.416
  141. 00:49:20.749 : en:00:49:20.749
  142. 01:00:50.856 : en:01:00:50.856
  143. 01:08:16.384 : en:01:08:16.384
  144. 01:18:09.810 : en:01:18:09.810
  145. 01:26:59.798 : en:01:26:59.798
Comments powered by Disqus