1. General
  2. Complete name : C:\Users\ddddrelease\Desktop\Wild.Portugal.2020.1080p.DSNP.WEB-DL.DDP.5.1.H.264-FLUX.mp4
  3. Format : MPEG-4
  4. Format profile : Base Media
  5. Codec ID : isom (isom/iso2/avc1/mp41)
  6. File size : 511 MiB
  7. Duration : 44 min 11 s
  8. Overall bit rate mode : Variable
  9. Overall bit rate : 1 618 kb/s
  10. Movie name : rlsbb.ru ddddrelease
  11. Album : rlsbb.ru ddddrelease
  12. Album/Performer : rlsbb.ru ddddrelease
  13. Performer : rlsbb.ru ddddrelease
  14. Composer : rlsbb.ru ddddrelease
  15. Description : Picture a land of boulder-strewn shorelines, isolated mountaintops, and golden prairies. Here, packs of wolves stalk herds of ancient mustangs and tree-climbing carnivores keep entire forests on edge. Meanwhile, high above the crashing surf, a pair of storks attempts to raise a family on a narrow ledge atop a towering cliff. EUROPE'S WILD WEST is a place where survival is reserved for those with the keenest senses... and the quickest draw.
  16. Writing application : Lavf58.12.100
  17. Comment : rlsbb.ru ddddrelease
  18. Video
  19. ID : 1
  20. Format : AVC
  21. Format/Info : Advanced Video Codec
  22. Format profile : [email protected]
  23. Format settings : CABAC / 2 Ref Frames
  24. Format settings, CABAC : Yes
  25. Format settings, Reference frames : 2 frames
  26. Format settings, GOP : M=1, N=25
  27. Codec ID : avc1
  28. Codec ID/Info : Advanced Video Coding
  29. Duration : 44 min 11 s
  30. Duration_FirstFrame : 40 ms
  31. Bit rate : 1 120 kb/s
  32. Width : 720 pixels
  33. Height : 480 pixels
  34. Display aspect ratio : 3:2
  35. Frame rate mode : Constant
  36. Frame rate : 25.000 FPS
  37. Color space : YUV
  38. Chroma subsampling : 4:2:0
  39. Bit depth : 8 bits
  40. Scan type : Progressive
  41. Bits/(Pixel*Frame) : 0.130
  42. Stream size : 354 MiB (69%)
  43. Codec configuration box : avcC
  44. Audio
  45. ID : 2
  46. Format : AAC LC
  47. Format/Info : Advanced Audio Codec Low Complexity
  48. Codec ID : mp4a-40-2
  49. Duration : 44 min 10 s
  50. Bit rate mode : Variable
  51. Bit rate : 493 kb/s
  52. Maximum bit rate : 576 kb/s
  53. Channel(s) : 6 channels
  54. Channel layout : C L R Ls Rs LFE
  55. Sampling rate : 48.0 kHz
  56. Frame rate : 46.875 FPS (1024 SPF)
  57. Compression mode : Lossy
  58. Stream size : 156 MiB (30%)
  59. Title : English
  60. Language : English
  61. Default : Yes
  62. Alternate group : 1
Comments powered by Disqus