1. General
  2. Unique ID : 117692592698061576232117371762950424752 (0x588AC4D36AE891154471FEBFA4F248B0)
  3. Complete name : High.School.Musical.The.Musical.The.Series.S02E10.Episode.10.1080p.DSNP.WEB-DL.DDP.5.1.Atmos.H.264-FLUX.mkv
  4. Format : Matroska
  5. Format version : Version 4
  6. File size : 1.56 GiB
  7. Duration : 29 min 46 s
  8. Overall bit rate mode : Variable
  9. Overall bit rate : 7 483 kb/s
  10. Movie name : High School Musical The Musical The Series - S02E10 - Episode 10
  11. Description : Joining Nini (Olivia Rodrigo), Ricky (Joshua Bassett), E.J. (Matt Cornett), Gina (Sofia Wylie), Big Red (Larry Saperstein), Ashlyn (Julia Lester), Kourtney (Dara Reneé), Carlos (Frankie Rodriguez), Seb (Joe Serafini), Mr. Mazzara (Mark St. Cyr) and Miss Jenn (Kate Reinders) are several exciting new characters. Zack (Derek Hough), Miss Jenn's ex-boyfriend and former high school heartthrob, shakes things up when he returns to Salt Lake after a successful acting career in NYC to be the new drama teacher at East High's rival high school, North High. Antoine (Andrew Barth Feldman), a foreign exchange student at North High, cannot help but flirt with Ashlyn. Howie (Roman Banks), a hyper-smart, bespectacled, adorkable high school junior, gets close to a certain Wildcat or two while working after school as a delivery guy for Big Red's family's pizza shop, Salt Lake Slices. And Lily (Olivia Rose Keegan) is a sugary sweet, energetic East High student who wants nothing more than to be on-stage with the Wildcats, but her sweetness masks her highly competitive nature.
  12. Encoded date : UTC 2021-07-16 07:04:34
  13. Writing application : mkvmerge v59.0.0 ('Shining Star') 64-bit
  14. Writing library : libebml v1.4.2 + libmatroska v1.6.4
  15. IMDB : tt8510382
  16. TMDB : tv/85801
  17. Video
  18. ID : 1
  19. Format : AVC
  20. Format/Info : Advanced Video Codec
  21. Format profile : [email protected]
  22. Format settings : CABAC / 4 Ref Frames
  23. Format settings, CABAC : Yes
  24. Format settings, Reference frames : 4 frames
  25. Codec ID : V_MPEG4/ISO/AVC
  26. Duration : 29 min 46 s
  27. Bit rate mode : Variable
  28. Bit rate : 6 710 kb/s
  29. Maximum bit rate : 12.7 Mb/s
  30. Width : 1 920 pixels
  31. Height : 1 080 pixels
  32. Display aspect ratio : 16:9
  33. Frame rate mode : Constant
  34. Frame rate : 23.976 (24000/1001) FPS
  35. Color space : YUV
  36. Chroma subsampling : 4:2:0
  37. Bit depth : 8 bits
  38. Scan type : Progressive
  39. Bits/(Pixel*Frame) : 0.135
  40. Stream size : 1.40 GiB (90%)
  41. Default : Yes
  42. Forced : No
  43. Color range : Limited
  44. Color primaries : BT.709
  45. Transfer characteristics : BT.709
  46. Matrix coefficients : BT.709
  47. Audio
  48. ID : 2
  49. Format : E-AC-3 JOC
  50. Format/Info : Enhanced AC-3 with Joint Object Coding
  51. Commercial name : Dolby Digital Plus with Dolby Atmos
  52. Codec ID : A_EAC3
  53. Duration : 29 min 46 s
  54. Bit rate mode : Constant
  55. Bit rate : 768 kb/s
  56. Channel(s) : 6 channels
  57. Channel layout : L R C LFE Ls Rs
  58. Sampling rate : 48.0 kHz
  59. Frame rate : 31.250 FPS (1536 SPF)
  60. Compression mode : Lossy
  61. Stream size : 164 MiB (10%)
  62. Title : English
  63. Language : English
  64. Service kind : Complete Main
  65. Default : Yes
  66. Forced : No
  67. Complexity index : 16
  68. Number of dynamic objects : 15
  69. Bed channel count : 1 channel
  70. Bed channel configuration : LFE
  71. Text #1
  72. ID : 3
  73. Format : UTF-8
  74. Codec ID : S_TEXT/UTF8
  75. Codec ID/Info : UTF-8 Plain Text
  76. Duration : 28 min 16 s
  77. Bit rate : 85 b/s
  78. Count of elements : 487
  79. Stream size : 17.7 KiB (0%)
  80. Title : English
  81. Language : English
  82. Default : No
  83. Forced : No
  84. Text #2
  85. ID : 4
  86. Format : UTF-8
  87. Codec ID : S_TEXT/UTF8
  88. Codec ID/Info : UTF-8 Plain Text
  89. Duration : 28 min 22 s
  90. Bit rate : 87 b/s
  91. Count of elements : 522
  92. Stream size : 18.2 KiB (0%)
  93. Title : English [CC]
  94. Language : English
  95. Default : No
  96. Forced : No
  97. Text #3
  98. ID : 5
  99. Format : UTF-8
  100. Codec ID : S_TEXT/UTF8
  101. Codec ID/Info : UTF-8 Plain Text
  102. Duration : 29 min 41 s
  103. Bit rate : 67 b/s
  104. Count of elements : 473
  105. Stream size : 14.7 KiB (0%)
  106. Title : Chinese (Hong Kong)
  107. Language : Chinese
  108. Default : No
  109. Forced : No
  110. Text #4
  111. ID : 6
  112. Format : UTF-8
  113. Codec ID : S_TEXT/UTF8
  114. Codec ID/Info : UTF-8 Plain Text
  115. Duration : 29 min 41 s
  116. Bit rate : 70 b/s
  117. Count of elements : 359
  118. Stream size : 15.3 KiB (0%)
  119. Title : Dansk
  120. Language : Danish
  121. Default : No
  122. Forced : No
  123. Text #5
  124. ID : 7
  125. Format : UTF-8
  126. Codec ID : S_TEXT/UTF8
  127. Codec ID/Info : UTF-8 Plain Text
  128. Duration : 29 min 41 s
  129. Bit rate : 76 b/s
  130. Count of elements : 461
  131. Stream size : 16.6 KiB (0%)
  132. Title : Deutsch
  133. Language : German
  134. Default : No
  135. Forced : No
  136. Text #6
  137. ID : 8
  138. Format : UTF-8
  139. Codec ID : S_TEXT/UTF8
  140. Codec ID/Info : UTF-8 Plain Text
  141. Duration : 29 min 41 s
  142. Bit rate : 71 b/s
  143. Count of elements : 470
  144. Stream size : 15.4 KiB (0%)
  145. Title : Español
  146. Language : Spanish
  147. Default : No
  148. Forced : No
  149. Text #7
  150. ID : 9
  151. Format : UTF-8
  152. Codec ID : S_TEXT/UTF8
  153. Codec ID/Info : UTF-8 Plain Text
  154. Duration : 29 min 41 s
  155. Bit rate : 71 b/s
  156. Count of elements : 473
  157. Stream size : 15.5 KiB (0%)
  158. Title : Español (Latinoamericano)
  159. Language : Spanish
  160. Default : No
  161. Forced : No
  162. Text #8
  163. ID : 10
  164. Format : UTF-8
  165. Codec ID : S_TEXT/UTF8
  166. Codec ID/Info : UTF-8 Plain Text
  167. Duration : 29 min 41 s
  168. Bit rate : 72 b/s
  169. Count of elements : 453
  170. Stream size : 15.9 KiB (0%)
  171. Title : Français
  172. Language : French
  173. Default : No
  174. Forced : No
  175. Text #9
  176. ID : 11
  177. Format : UTF-8
  178. Codec ID : S_TEXT/UTF8
  179. Codec ID/Info : UTF-8 Plain Text
  180. Duration : 29 min 41 s
  181. Bit rate : 70 b/s
  182. Count of elements : 473
  183. Stream size : 15.4 KiB (0%)
  184. Title : Italiano
  185. Language : Italian
  186. Default : No
  187. Forced : No
  188. Text #10
  189. ID : 12
  190. Format : UTF-8
  191. Codec ID : S_TEXT/UTF8
  192. Codec ID/Info : UTF-8 Plain Text
  193. Duration : 29 min 41 s
  194. Bit rate : 66 b/s
  195. Count of elements : 461
  196. Stream size : 14.5 KiB (0%)
  197. Title : Japanese
  198. Language : Japanese
  199. Default : No
  200. Forced : No
  201. Text #11
  202. ID : 13
  203. Format : UTF-8
  204. Codec ID : S_TEXT/UTF8
  205. Codec ID/Info : UTF-8 Plain Text
  206. Duration : 29 min 41 s
  207. Bit rate : 66 b/s
  208. Count of elements : 379
  209. Stream size : 14.4 KiB (0%)
  210. Title : Nederlands
  211. Language : Dutch
  212. Default : No
  213. Forced : No
  214. Text #12
  215. ID : 14
  216. Format : UTF-8
  217. Codec ID : S_TEXT/UTF8
  218. Codec ID/Info : UTF-8 Plain Text
  219. Duration : 29 min 41 s
  220. Bit rate : 70 b/s
  221. Count of elements : 470
  222. Stream size : 15.3 KiB (0%)
  223. Title : Norsk
  224. Language : Norwegian
  225. Default : No
  226. Forced : No
  227. Text #13
  228. ID : 15
  229. Format : UTF-8
  230. Codec ID : S_TEXT/UTF8
  231. Codec ID/Info : UTF-8 Plain Text
  232. Duration : 29 min 41 s
  233. Bit rate : 70 b/s
  234. Count of elements : 471
  235. Stream size : 15.3 KiB (0%)
  236. Title : Português
  237. Language : Portuguese
  238. Default : No
  239. Forced : No
  240. Text #14
  241. ID : 16
  242. Format : UTF-8
  243. Codec ID : S_TEXT/UTF8
  244. Codec ID/Info : UTF-8 Plain Text
  245. Duration : 29 min 41 s
  246. Bit rate : 71 b/s
  247. Count of elements : 472
  248. Stream size : 15.6 KiB (0%)
  249. Title : Português (Brasil)
  250. Language : Portuguese
  251. Default : No
  252. Forced : No
  253. Text #15
  254. ID : 17
  255. Format : UTF-8
  256. Codec ID : S_TEXT/UTF8
  257. Codec ID/Info : UTF-8 Plain Text
  258. Duration : 29 min 41 s
  259. Bit rate : 67 b/s
  260. Count of elements : 471
  261. Stream size : 14.7 KiB (0%)
  262. Title : Suomi
  263. Language : Finnish
  264. Default : No
  265. Forced : No
  266. Text #16
  267. ID : 18
  268. Format : UTF-8
  269. Codec ID : S_TEXT/UTF8
  270. Codec ID/Info : UTF-8 Plain Text
  271. Duration : 29 min 41 s
  272. Bit rate : 71 b/s
  273. Count of elements : 471
  274. Stream size : 15.6 KiB (0%)
  275. Title : Svenska
  276. Language : Swedish
  277. Default : No
  278. Forced : No
  279. Menu
  280. 00:00:01.004 : Previously On
  281. 00:00:30.867 : Main
  282. 00:03:26.167 : Intro
  283. 00:03:36.178 : Main
  284. 00:28:34.384 : Credits
Comments powered by Disqus