1. Format : Matroska
  2. Format version : Version 4
  3. File size : 850 MiB
  4. Duration : 1 h 41 min
  5. Overall bit rate : 1 173 kb/s
  6. Movie name : Annabelle.Comes.Home.2019.720p.HC.HDRip.x264-MkvCage.com
  7. Encoded date : UTC 2019-08-13 20:43:58
  8. Writing application : mkvmerge v35.0.0 ('All The Love In The World') 64-bit
  9. Writing library : libebml v1.3.9 + libmatroska v1.5.2
  10. Video
  11. ID : 1
  12. Format : AVC
  13. Format/Info : Advanced Video Codec
  14. Format profile : [email protected]
  15. Format settings : CABAC / 5 Ref Frames
  16. Format settings, CABAC : Yes
  17. Format settings, Reference : 5 frames
  18. Codec ID : V_MPEG4/ISO/AVC
  19. Duration : 1 h 39 min
  20. Bit rate : 1 125 kb/s
  21. Width : 1 280 pixels
  22. Height : 534 pixels
  23. Display aspect ratio : 2.40:1
  24. Frame rate mode : Constant
  25. Frame rate : 30.000 FPS
  26. Color space : YUV
  27. Chroma subsampling : 4:2:0
  28. Bit depth : 8 bits
  29. Scan type : Progressive
  30. Bits/(Pixel*Frame) : 0.055
  31. Stream size : 802 MiB (94%)
  32. Writing library : x264 core 157 r2935 545de2f
  33. Encoding settings : cabac=1 / ref=5 / deblock=1:-1:-1 / analyse=0x3:0x133 / me=umh / subme=9 / psy=1 / psy_rd=1.00:0.10 / mixed_ref=1 / me_range=24 / chroma_me=1 / trellis=2 / 8x8dct=1 / cqm=0 / deadzone=21,11 / fast_pskip=1 / chroma_qp_offset=-3 / threads=17 / lookahead_threads=1 / sliced_threads=0 / nr=0 / decimate=1 / interlaced=0 / bluray_compat=0 / constrained_intra=0 / bframes=3 / b_pyramid=2 / b_adapt=2 / b_bias=0 / direct=3 / weightb=1 / open_gop=0 / weightp=2 / keyint=250 / keyint_min=25 / scenecut=40 / intra_refresh=0 / rc_lookahead=60 / rc=2pass / mbtree=1 / bitrate=1125 / ratetol=1.0 / qcomp=0.60 / qpmin=0 / qpmax=69 / qpstep=4 / cplxblur=20.0 / qblur=0.5 / ip_ratio=1.40 / aq=1:1.00
  34. Default : Yes
  35. Forced : No
  36. Audio
  37. ID : 2
  38. Format : AAC LC SBR
  39. Format/Info : Advanced Audio Codec Low Complexity with Spectral Band Replication
  40. Commercial name : HE-AAC
  41. Format settings : Explicit
  42. Codec ID : A_AAC-2
  43. Duration : 1 h 39 min
  44. Bit rate : 64.0 kb/s
  45. Channel(s) : 2 channels
  46. Channel layout : L R
  47. Sampling rate : 48.0 kHz
  48. Frame rate : 23.438 FPS (2048 SPF)
  49. Compression mode : Lossy
  50. Delay relative to video : 43 ms
  51. Stream size : 45.7 MiB (5%)
  52. Language : English
  53. Default : Yes
  54. Forced : No
  55. Text #1
  56. ID : 3
  57. Format : UTF-8
  58. Codec ID : S_TEXT/UTF8
  59. Codec ID/Info : UTF-8 Plain Text
  60. Duration : 1 h 40 min
  61. Bit rate : 43 b/s
  62. Count of elements : 1236
  63. Stream size : 32.2 KiB (0%)
  64. Title : HI
  65. Language : English
  66. Default : Yes
  67. Forced : No
  68. Text #2
  69. ID : 4
  70. Format : UTF-8
  71. Codec ID : S_TEXT/UTF8
  72. Codec ID/Info : UTF-8 Plain Text
  73. Duration : 1 h 40 min
  74. Bit rate : 34 b/s
  75. Count of elements : 956
  76. Stream size : 25.3 KiB (0%)
  77. Language : English
  78. Default : No
  79. Forced : No
Comments powered by Disqus