1. General
  2. Complete name : C:\Users\ddddrelease\Desktop\Carnival.Magic.1983.720P.BLURAY.x264-WATCHABLE.mp4
  3. Format : MPEG-4
  4. Format profile : Base Media
  5. Codec ID : isom (isom/iso2/avc1/mp41)
  6. File size : 433 MiB
  7. Duration : 1 h 25 min
  8. Overall bit rate mode : Variable
  9. Overall bit rate : 705 kb/s
  10. Movie name : ddddrelease rlsbb.ru
  11. Album : ddddrelease rlsbb.ru
  12. Album/Performer : ddddrelease rlsbb.ru
  13. Performer : ddddrelease rlsbb.ru
  14. Composer : ddddrelease rlsbb.ru
  15. Encoded date : UTC 2021-07-05 16:47:28
  16. Tagged date : UTC 2021-07-05 16:47:28
  17. Writing application : Lavf58.12.100
  18. Comment : ddddrelease rlsbb.ru
  19. Video
  20. ID : 1
  21. Format : AVC
  22. Format/Info : Advanced Video Codec
  23. Format profile : [email protected]
  24. Format settings : CABAC / 2 Ref Frames
  25. Format settings, CABAC : Yes
  26. Format settings, Reference frames : 2 frames
  27. Codec ID : avc1
  28. Codec ID/Info : Advanced Video Coding
  29. Duration : 1 h 25 min
  30. Duration_FirstFrame : 42 ms
  31. Bit rate : 583 kb/s
  32. Width : 720 pixels
  33. Height : 480 pixels
  34. Display aspect ratio : 3:2
  35. Frame rate mode : Constant
  36. Frame rate : 23.976 (24000/1001) FPS
  37. Color space : YUV
  38. Chroma subsampling : 4:2:0
  39. Bit depth : 8 bits
  40. Scan type : Progressive
  41. Bits/(Pixel*Frame) : 0.070
  42. Stream size : 358 MiB (83%)
  43. Encoded date : UTC 2021-07-05 16:47:28
  44. Tagged date : UTC 2021-07-05 16:47:28
  45. Codec configuration box : avcC
  46. Audio
  47. ID : 2
  48. Format : AAC LC
  49. Format/Info : Advanced Audio Codec Low Complexity
  50. Codec ID : mp4a-40-2
  51. Duration : 1 h 25 min
  52. Bit rate mode : Variable
  53. Bit rate : 117 kb/s
  54. Maximum bit rate : 192 kb/s
  55. Channel(s) : 2 channels
  56. Channel layout : L R
  57. Sampling rate : 48.0 kHz
  58. Frame rate : 46.875 FPS (1024 SPF)
  59. Compression mode : Lossy
  60. Stream size : 72.1 MiB (17%)
  61. Title : English
  62. Language : English
  63. Default : Yes
  64. Alternate group : 1
  65. Encoded date : UTC 2021-07-05 16:47:28
  66. Tagged date : UTC 2021-07-05 16:47:28
Comments powered by Disqus