1. General
  2. Unique ID : 89924069856622618644694130130993512454 (0x43A6BEF25F3E5965EA20E119E1938006)
  3. Complete name : unfired-herrlichezeiten-x265.mkv
  4. Format : Matroska
  5. Format version : Version 2
  6. File size : 2.96 GiB
  7. Duration : 1 h 50 min
  8. Overall bit rate : 3 842 kb/s
  9. Encoded date : UTC 2018-11-07 16:23:28
  10. Writing application : mkvmerge v24.0.0 ('Beyond The Pale') 64-bit
  11. Writing library : libebml v1.3.6 + libmatroska v1.4.9
  12. Video
  13. ID : 1
  14. Format : HEVC
  15. Format/Info : High Efficiency Video Coding
  16. Format profile : [email protected]@Main
  17. Codec ID : V_MPEGH/ISO/HEVC
  18. Duration : 1 h 50 min
  19. Bit rate : 2 320 kb/s
  20. Width : 1 920 pixels
  21. Height : 804 pixels
  22. Display aspect ratio : 2.40:1
  23. Frame rate mode : Constant
  24. Frame rate : 24.000 FPS
  25. Color space : YUV
  26. Chroma subsampling : 4:2:0
  27. Bit depth : 8 bits
  28. Bits/(Pixel*Frame) : 0.063
  29. Stream size : 1.79 GiB (60%)
  30. Writing library : x265 2.8+1-478bfe2b7673:[Windows][GCC 7.3.0][64 bit] 8bit+10bit+12bit
  31. Encoding settings : cpuid=1111039 / frame-threads=16 / numa-pools=16 / wpp / no-pmode / no-pme / no-psnr / no-ssim / log-level=2 / input-csp=1 / input-res=1920x804 / interlace=0 / total-frames=159065 / level-idc=0 / high-tier=1 / uhd-bd=0 / ref=4 / no-allow-non-conformance / no-repeat-headers / annexb / no-aud / no-hrd / info / hash=0 / no-temporal-layers / open-gop / min-keyint=24 / keyint=250 / gop-lookahead=0 / bframes=4 / b-adapt=2 / b-pyramid / bframe-bias=0 / rc-lookahead=25 / lookahead-slices=4 / scenecut=40 / radl=0 / no-intra-refresh / ctu=64 / min-cu-size=8 / rect / no-amp / max-tu-size=32 / tu-inter-depth=1 / tu-intra-depth=1 / limit-tu=0 / rdoq-level=2 / dynamic-rd=0.00 / no-ssim-rd / signhide / no-tskip / nr-intra=0 / nr-inter=0 / no-constrained-intra / strong-intra-smoothing / max-merge=3 / limit-refs=3 / limit-modes / me=3 / subme=3 / merange=57 / temporal-mvp / weightp / no-weightb / no-analyze-src-pics / deblock=0:0 / sao / no-sao-non-deblock / rd=4 / no-early-skip / rskip / no-fast-intra / no-tskip-fast / no-cu-lossless / no-b-intra / no-splitrd-skip / rdpenalty=0 / psy-rd=2.00 / psy-rdoq=1.00 / no-rd-refine / no-lossless / cbqpoffs=0 / crqpoffs=0 / rc=crf / crf=19.9 / qcomp=0.60 / qpstep=4 / stats-write=0 / stats-read=0 / ipratio=1.40 / pbratio=1.30 / aq-mode=1 / aq-strength=1.00 / cutree / zone-count=0 / no-strict-cbr / qg-size=32 / no-rc-grain / qpmax=69 / qpmin=0 / no-const-vbv / sar=1 / overscan=0 / videoformat=5 / range=0 / colorprim=2 / transfer=2 / colormatrix=2 / chromaloc=0 / display-window=0 / max-cll=0,0 / min-luma=0 / max-luma=255 / log2-max-poc-lsb=8 / vui-timing-info / vui-hrd-info / slices=1 / no-opt-qp-pps / no-opt-ref-list-length-pps / no-multi-pass-opt-rps / scenecut-bias=0.05 / no-opt-cu-delta-qp / no-aq-motion / no-hdr / no-hdr-opt / no-dhdr10-opt / no-idr-recovery-sei / analysis-reuse-level=5 / scale-factor=0 / refine-intra=0 / refine-inter=0 / refine-mv=0 / no-limit-sao / ctu-info=0 / no-lowpass-dct / refine-mv-type=0 / copy-pic=1 / max-ausize-factor=1.0 / no-dynamic-refine / no-single-sei
  32. Default : Yes
  33. Forced : No
  34. Audio
  35. ID : 2
  36. Format : DTS
  37. Format/Info : Digital Theater Systems
  38. Codec ID : A_DTS
  39. Duration : 1 h 50 min
  40. Bit rate mode : Constant
  41. Bit rate : 1 509 kb/s
  42. Channel(s) : 6 channels
  43. Channel layout : C L R Ls Rs LFE
  44. Sampling rate : 48.0 kHz
  45. Frame rate : 93.750 FPS (512 SPF)
  46. Bit depth : 24 bits
  47. Compression mode : Lossy
  48. Stream size : 1.16 GiB (39%)
  49. Language : German
  50. Default : Yes
  51. Forced : No
  52. Text #1
  53. ID : 3
  54. Format : UTF-8
  55. Codec ID : S_TEXT/UTF8
  56. Codec ID/Info : UTF-8 Plain Text
  57. Duration : 24 s 333 ms
  58. Bit rate : 51 b/s
  59. Count of elements : 6
  60. Stream size : 157 Bytes (0%)
  61. Title : forced
  62. Language : German
  63. Default : Yes
  64. Forced : Yes
  65. Text #2
  66. ID : 4
  67. Format : PGS
  68. Muxing mode : zlib
  69. Codec ID : S_HDMV/PGS
  70. Codec ID/Info : Picture based subtitle format used on BDs/HD-DVDs
  71. Duration : 1 h 49 min
  72. Bit rate : 28.7 kb/s
  73. Count of elements : 2348
  74. Stream size : 22.5 MiB (1%)
  75. Title : complete
  76. Language : German
  77. Default : No
  78. Forced : No
  79. Menu
  80. 00:00:00.000 : en:00:00:00.000
  81. 00:09:09.625 : en:00:09:09.625
  82. 00:19:17.625 : en:00:19:17.625
  83. 00:27:21.792 : en:00:27:21.792
  84. 00:36:06.250 : en:00:36:06.250
  85. 00:46:09.583 : en:00:46:09.583
  86. 00:55:15.042 : en:00:55:15.042
  87. 01:05:08.042 : en:01:05:08.042
  88. 01:13:42.000 : en:01:13:42.000
  89. 01:23:28.708 : en:01:23:28.708
  90. 01:32:45.875 : en:01:32:45.875
  91. 01:43:18.458 : en:01:43:18.458
Comments powered by Disqus