1. Release Name..: Alphas S01 1080i BluRay REMUX AVC DTS-HD MA 5.1-EPSiLON
  2. Video.........: 1080i AVC @ 21554 kbps
  3. Audio #1......: DTS-HD MA 5.1 @ 2278 kbps
  4. Chapters......: Yes (Not Named)
  5. Source........: -FabMan (Thanks!)
  6. Notes.........: Enjoy.
  7. General
  8. Unique ID : 338423144770489493629454257761469157454 (0xFE99ED454D5F76B8A714D40358A9504E)
  9. Complete name : Alphas.S01E01.Pilot.Part.1.1080i.BluRay.REMUX.AVC.DTS-HD.MA.5.1-EPSiLON.mkv
  10. Format : Matroska
  11. Format version : Version 4 / Version 2
  12. File size : 6.90 GiB
  13. Duration : 42 min 1 s
  14. Overall bit rate mode : Variable
  15. Overall bit rate : 23.5 Mb/s
  16. Encoded date : UTC 2017-08-27 22:58:29
  17. Writing application : mkvmerge v15.0.0 ('Duel with the Devil') 64-bit
  18. Writing library : libebml v1.3.5 + libmatroska v1.4.5
  19. Video
  20. ID : 1
  21. Format : AVC
  22. Format/Info : Advanced Video Codec
  23. Format profile : [email protected]
  24. Format settings, CABAC : Yes
  25. Format settings, ReFrames : 2 frames
  26. Codec ID : V_MPEG4/ISO/AVC
  27. Duration : 41 min 17 s
  28. Bit rate mode : Variable
  29. Bit rate : 21.5 Mb/s
  30. Maximum bit rate : 36.0 Mb/s
  31. Width : 1 920 pixels
  32. Height : 1 080 pixels
  33. Display aspect ratio : 16:9
  34. Frame rate mode : Constant
  35. Frame rate : 29.970 (30000/1001) FPS
  36. Color space : YUV
  37. Chroma subsampling : 4:2:0
  38. Bit depth : 8 bits
  39. Scan type : MBAFF
  40. Scan type, store method : Interleaved fields
  41. Scan order : Top Field First
  42. Bits/(Pixel*Frame) : 0.347
  43. Stream size : 6.21 GiB (90%)
  44. Title : MPEG-4 AVC Video / 21554 kbps / 1080i / 29.970 fps / 16:9 / High Profile 4.1
  45. Language : English
  46. Default : Yes
  47. Forced : No
  48. Color range : Limited
  49. Color primaries : BT.709
  50. Transfer characteristics : BT.709
  51. Matrix coefficients : BT.709
  52. Audio
  53. ID : 2
  54. Format : DTS
  55. Format/Info : Digital Theater Systems
  56. Format profile : MA / Core
  57. Mode : 16
  58. Format settings, Endianness : Big
  59. Codec ID : A_DTS
  60. Duration : 42 min 1 s
  61. Bit rate mode : Variable / Constant
  62. Bit rate : 2 312 kb/s / 1 509 kb/s
  63. Channel(s) : 6 channels
  64. Channel positions : Front: L C R, Side: L R, LFE
  65. Sampling rate : 48.0 kHz
  66. Frame rate : 93.750 FPS (512 spf)
  67. Bit depth : 16 bits
  68. Compression mode : Lossless / Lossy
  69. Stream size : 695 MiB (10%)
  70. Title : DTS-HD Master Audio / 5.1 / 48 kHz / 2278 kbps / 16-bit
  71. Language : English
  72. Default : Yes
  73. Forced : No
  74. Text
  75. ID : 3
  76. Format : PGS
  77. Codec ID : S_HDMV/PGS
  78. Codec ID/Info : Picture based subtitle format used on BDs/HD-DVDs
  79. Duration : 40 min 23 s
  80. Bit rate : 24.8 kb/s
  81. Count of elements : 1130
  82. Stream size : 7.15 MiB (0%)
  83. Language : Japanese
  84. Default : No
  85. Forced : No
  86. Menu
  87. 00:00:00.000 : en:Chapter 1
  88. 00:03:36.316 : en:Chapter 2
  89. 00:18:13.292 : en:Chapter 3
  90. 00:30:19.818 : en:Chapter 4
  91. 00:38:17.308 : en:Chapter 5
Comments powered by Disqus