1. Pirates.Of.The.Caribbean.Collection.2160p.HDR.WEB.H265-WATCHER
  2. Pirates of the Caribbean Collection
  3. Info from From Pirates of the Caribbean: The Curse of the Black Pearl (2003)
  4. General
  5. Complete name : pirates.of.the.caribbean.the.curse.of.the.black.pearl.2003.2160p.web.h265-watcher.mkv
  6. Format : Matroska
  7. Format version : Version 4
  8. File size : 16.7 GiB
  9. Duration : 2 h 24 min
  10. Overall bit rate : 16.6 Mb/s
  11. Encoded date : UTC 2020-02-06 18:45:23
  12. Writing application : mkvmerge v9.1.0 ('Little Earthquakes') 32bit
  13. Writing library : libebml v1.3.3 + libmatroska v1.4.4
  14. Video
  15. ID : 1
  16. Format : HEVC
  17. Format/Info : High Efficiency Video Coding
  18. Format profile : Main [email protected]@High
  19. Codec ID : V_MPEGH/ISO/HEVC
  20. Duration : 2 h 24 min
  21. Bit rate : 16.3 Mb/s
  22. Width : 3 840 pixels
  23. Height : 2 160 pixels
  24. Display aspect ratio : 16:9
  25. Frame rate mode : Constant
  26. Frame rate : 23.976 (24000/1001) FPS
  27. Color space : YUV
  28. Chroma subsampling : 4:2:0
  29. Bit depth : 10 bits
  30. Bits/(Pixel*Frame) : 0.082
  31. Stream size : 16.5 GiB (98%)
  32. Default : Yes
  33. Forced : No
  34. Color range : Limited
  35. Color primaries : BT.2020
  36. Transfer characteristics : PQ
  37. Matrix coefficients : BT.2020 non-constant
  38. Audio
  39. ID : 2
  40. Format : E-AC-3
  41. Format/Info : Enhanced AC-3
  42. Commercial name : Dolby Digital Plus
  43. Codec ID : A_EAC3
  44. Duration : 2 h 24 min
  45. Bit rate mode : Constant
  46. Bit rate : 256 kb/s
  47. Channel(s) : 6 channels
  48. Channel layout : L R C LFE Ls Rs
  49. Sampling rate : 48.0 kHz
  50. Frame rate : 31.250 FPS (1536 SPF)
  51. Compression mode : Lossy
  52. Stream size : 264 MiB (2%)
  53. Title : English
  54. Language : English
  55. Service kind : Complete Main
  56. Default : Yes
  57. Forced : No
  58. Subtitles - Yes English, Castilian, Spanish, French, German, Italian, Portuguese, Swedish, Danish, Finnish, Dutch, Norwegian
  59. Source - watcher
  60. Encoded by - watcher
  61. Pirates of the Caribbean: The Curse of the Black Pearl (2003)
  62. https://www.imdb.com/title/tt0325980/
  63. Pirates of the Caribbean: Dead Man's Chest (2006)
  64. https://www.imdb.com/title/tt0383574/
  65. Pirates of the Caribbean: At World's End (2007)
  66. https://www.imdb.com/title/tt0449088/
  67. Pirates of the Caribbean: On Stranger Tides (2011)
  68. https://www.imdb.com/title/tt1298650/
  69. Pirates of the Caribbean: Dead Men Tell No Tales (2017)
  70. https://www.imdb.com/title/tt1790809/
  71. Stars: Johnny Depp, Geoffrey Rush, Orlando Bloom
  72. Blacksmith Will Turner teams up with eccentric pirate "Captain" Jack Sparrow to save his love, the governor's daughter, from Jack's former pirate allies, who are now undead.