1. General
  2. Complete name : C:\Users\ddddrelease\Desktop\Gaia.2021.REPACK.1080p.WEB-DL.DD5.1.H.264-CMRG.mp4
  3. Format : MPEG-4
  4. Format profile : Base Media
  5. Codec ID : isom (isom/iso2/avc1/mp41)
  6. File size : 534 MiB
  7. Duration : 1 h 36 min
  8. Overall bit rate mode : Constant
  9. Overall bit rate : 773 kb/s
  10. Movie name : ddddrelease rlsbb.ru
  11. Album : ddddrelease rlsbb.ru
  12. Album/Performer : ddddrelease rlsbb.ru
  13. Performer : ddddrelease rlsbb.ru
  14. Composer : ddddrelease rlsbb.ru
  15. Encoded date : UTC 2021-06-25 07:56:10
  16. Tagged date : UTC 2021-06-25 07:56:10
  17. Writing application : Lavf58.12.100
  18. Comment : ddddrelease rlsbb.ru
  19. Video
  20. ID : 1
  21. Format : AVC
  22. Format/Info : Advanced Video Codec
  23. Format profile : [email protected]
  24. Format settings : CABAC / 1 Ref Frames
  25. Format settings, CABAC : Yes
  26. Format settings, Reference frames : 1 frame
  27. Format settings, GOP : M=1, N=25
  28. Codec ID : avc1
  29. Codec ID/Info : Advanced Video Coding
  30. Duration : 1 h 36 min
  31. Bit rate mode : Constant
  32. Bit rate : 512 kb/s
  33. Width : 720 pixels
  34. Height : 480 pixels
  35. Display aspect ratio : 3:2
  36. Frame rate mode : Variable
  37. Frame rate : 23.976 (24000/1001) FPS
  38. Minimum frame rate : 23.810 FPS
  39. Maximum frame rate : 29.162 FPS
  40. Color space : YUV
  41. Chroma subsampling : 4:2:0
  42. Bit depth : 8 bits
  43. Scan type : Progressive
  44. Bits/(Pixel*Frame) : 0.062
  45. Stream size : 354 MiB (66%)
  46. Encoded date : UTC 2021-06-25 07:56:10
  47. Tagged date : UTC 2021-06-25 07:56:10
  48. Codec configuration box : avcC
  49. Audio
  50. ID : 2
  51. Format : AC-3
  52. Format/Info : Audio Coding 3
  53. Commercial name : Dolby Digital
  54. Codec ID : ac-3
  55. Duration : 1 h 36 min
  56. Bit rate mode : Constant
  57. Bit rate : 256 kb/s
  58. Channel(s) : 2 channels
  59. Channel layout : L R
  60. Sampling rate : 48.0 kHz
  61. Frame rate : 31.250 FPS (1536 SPF)
  62. Compression mode : Lossy
  63. Stream size : 177 MiB (33%)
  64. Title : English
  65. Language : English
  66. Service kind : Complete Main
  67. Default : Yes
  68. Alternate group : 1
  69. Encoded date : UTC 2021-06-25 07:56:10
  70. Tagged date : UTC 2021-06-25 07:56:10