1. General
  2. Unique ID : 30675339651922943698511118065085488080 (0x1713DB034ADDCC9F833C040A1BBC9BD0)
  3. Complete name : The.Letter.1940.1080p.BluRay.REMUX.AVC.FLAC.2.0-EPSiLON.mkv
  4. Format : Matroska
  5. Format version : Version 4
  6. File size : 23.8 GiB
  7. Duration : 1 h 35 min
  8. Overall bit rate mode : Variable
  9. Overall bit rate : 35.8 Mb/s
  10. Movie name : The Letter (1940)
  11. Encoded date : UTC 2019-09-22 23:04:48
  12. Writing application : mkvmerge v37.0.0 ('Leave It') 64-bit
  13. Writing library : libebml v1.3.9 + libmatroska v1.5.2
  14. IMDB : tt0032701
  15. TMDB : movie/17801
  16. Video
  17. ID : 1
  18. Format : AVC
  19. Format/Info : Advanced Video Codec
  20. Format profile : [email protected]
  21. Format settings : CABAC / 4 Ref Frames
  22. Format settings, CABAC : Yes
  23. Format settings, Reference frames : 4 frames
  24. Codec ID : V_MPEG4/ISO/AVC
  25. Duration : 1 h 35 min
  26. Bit rate mode : Variable
  27. Bit rate : 34.9 Mb/s
  28. Maximum bit rate : 38.0 Mb/s
  29. Width : 1 920 pixels
  30. Height : 1 080 pixels
  31. Display aspect ratio : 16:9
  32. Frame rate mode : Constant
  33. Frame rate : 23.976 (24000/1001) FPS
  34. Color space : YUV
  35. Chroma subsampling : 4:2:0
  36. Bit depth : 8 bits
  37. Scan type : Progressive
  38. Bits/(Pixel*Frame) : 0.701
  39. Stream size : 23.2 GiB (97%)
  40. Title : MPEG-4 AVC Video / 34991 kbps / 1080p / 23.976 fps / 16:9 / High Profile 4.1
  41. Language : English
  42. Default : Yes
  43. Forced : No
  44. Audio
  45. ID : 2
  46. Format : FLAC
  47. Format/Info : Free Lossless Audio Codec
  48. Codec ID : A_FLAC
  49. Duration : 1 h 35 min
  50. Bit rate mode : Variable
  51. Bit rate : 821 kb/s
  52. Channel(s) : 2 channels
  53. Channel layout : L R
  54. Sampling rate : 48.0 kHz
  55. Frame rate : 11.719 FPS (4096 SPF)
  56. Bit depth : 24 bits
  57. Compression mode : Lossless
  58. Stream size : 559 MiB (2%)
  59. Title : FLAC Audio / 2.0 / 48 kHz / 821 kbps / 24-bit
  60. Writing library : libFLAC 1.2.1 (UTC 2007-09-17)
  61. Language : English
  62. Default : Yes
  63. Forced : No
  64. Text
  65. ID : 3
  66. Format : PGS
  67. Codec ID : S_HDMV/PGS
  68. Codec ID/Info : Picture based subtitle format used on BDs/HD-DVDs
  69. Duration : 1 h 33 min
  70. Bit rate : 110 kb/s
  71. Count of elements : 3160
  72. Stream size : 73.2 MiB (0%)
  73. Title : SDH
  74. Language : English
  75. Default : No
  76. Forced : No
  77. Menu
  78. 00:00:00.000 : en:Chapter 1
  79. 00:00:59.226 : en:Chapter 2
  80. 00:05:15.690 : en:Chapter 3
  81. 00:11:00.785 : en:Chapter 4
  82. 00:15:53.870 : en:Chapter 5
  83. 00:18:46.876 : en:Chapter 6
  84. 00:24:34.640 : en:Chapter 7
  85. 00:30:42.549 : en:Chapter 8
  86. 00:38:32.519 : en:Chapter 9
  87. 00:42:28.671 : en:Chapter 10
  88. 00:45:49.246 : en:Chapter 11
  89. 00:48:46.090 : en:Chapter 12
  90. 00:53:26.161 : en:Chapter 13
  91. 00:57:40.791 : en:Chapter 14
  92. 01:03:44.446 : en:Chapter 15
  93. 01:08:40.325 : en:Chapter 16
  94. 01:12:44.694 : en:Chapter 17
  95. 01:16:29.210 : en:Chapter 18
  96. 01:19:46.448 : en:Chapter 19
  97. 01:22:06.672 : en:Chapter 20
  98. 01:26:01.323 : en:Chapter 21
  99. 01:29:40.500 : en:Chapter 22
  100. 01:34:38.423 : en:Chapter 23
Comments powered by Disqus