1. 2021-10-12 07:27:21.271
  2. Operating System: Linux version 4.4.180+ ([email protected]) (gcc version 7.5.0 (GCC) ) #41890 SMP Thu Jul 15 03:42:46 CST 2021
  3. OS/Process: arm64/arm64
  4. Emby Server version: 4.6.4.0
  5. Operating system: Unix 4.4.180.0
  6. Command Line: /volume1/@appstore/EmbyServer/system/EmbyServer.dll /volume1/@appstore/EmbyServer/system/EmbyServer.dll -programdata /var/packages/EmbyServer/var -ffdetect /var/packages/EmbyServer/target/bin/ffdetect -ffmpeg /var/packages/EmbyServer/target/bin/ffmpeg -ffprobe /var/packages/EmbyServer/target/bin/ffprobe -nolocalportconfig -ignore_vaapi_enabled_flag -pidfile /var/packages/EmbyServer/var/EmbyServer.pid -updatepackage emby-server-synology7_{version}_armv8.spk -noautorunwebapp
  7. App: Emby Web 4.6.4.0
  8. Chrome
  9. http://192-168-1-73.marcomtribeiro.direct.quickconnect.to:8096/emby/videos/42146/hls1/main/0.ts?DeviceId=d1a26b65-9802-4356-b782-a827dc8568a4&MediaSourceId=b893c44ae48c7d3a38f7d6df873e1109&PlaySessionId=6ceb56bdf6eb4c798b29a381f43ed809&api_key=4751bfe4b4fa4540993d85eca3ddb7bf&VideoCodec=h264&AudioCodec=mp3,aac&VideoBitrate=139776000&AudioBitrate=224000&AudioStreamIndex=1&TranscodingMaxAudioChannels=2&SegmentContainer=ts&MinSegments=1&BreakOnNonKeyFrames=True&ManifestSubtitles=vtt&h264-profile=high,main,baseline,constrainedbaseline,high10&h264-level=52&TranscodeReasons=VideoCodecNotSupported
  10. {"Protocol":"File","Id":"b893c44ae48c7d3a38f7d6df873e1109","Path":"/volume1/PlexMedia/Movies/Mission Impossible/Mission.Impossible.1996.REMASTERED.PROPER.1080p.BluRay.x265-RARBG.mp4","Type":"Default","Container":"mp4","Size":1844178567,"Name":"Mission.Impossible.1996.REMASTERED.PROPER.1080p.BluRay.x265-RARBG","IsRemote":false,"RunTimeTicks":66129400000,"SupportsTranscoding":true,"SupportsDirectStream":true,"SupportsDirectPlay":true,"IsInfiniteStream":false,"RequiresOpening":false,"RequiresClosing":false,"RequiresLooping":false,"SupportsProbing":false,"MediaStreams":[{"Codec":"hevc","CodecTag":"hev1","Language":"und","TimeBase":"1/24000","CodecTimeBase":"1001/24000","VideoRange":"SDR","DisplayTitle":"1080p HEVC","IsInterlaced":false,"BitRate":2000199,"BitDepth":10,"RefFrames":1,"IsDefault":true,"IsForced":false,"Height":800,"Width":1920,"AverageFrameRate":23.976025,"RealFrameRate":23.976025,"Profile":"Main 10","Type":"Video","AspectRatio":"2.40:1","Index":0,"IsExternal":false,"IsTextSubtitleStream":false,"SupportsExternalStream":false,"Protocol":"File","PixelFormat":"yuv420p10le","Level":120,"IsAnamorphic":false},{"Codec":"aac","CodecTag":"mp4a","Language":"eng","TimeBase":"1/48000","CodecTimeBase":"1/48000","DisplayTitle":"English AAC 5.1 (Default)","DisplayLanguage":"English","IsInterlaced":false,"ChannelLayout":"5.1","BitRate":224000,"Channels":6,"SampleRate":48000,"IsDefault":true,"IsForced":false,"Profile":"LC","Type":"Audio","Index":1,"IsExternal":false,"IsTextSubtitleStream":false,"SupportsExternalStream":false,"Protocol":"File"},{"Codec":"srt","Language":"eng","DisplayTitle":"English (SRT)","DisplayLanguage":"English","IsInterlaced":false,"IsDefault":false,"IsForced":false,"Type":"Subtitle","Index":2,"IsExternal":true,"IsTextSubtitleStream":true,"SupportsExternalStream":true,"Path":"/volume1/PlexMedia/Movies/Mission Impossible/Mission.Impossible.1996.REMASTERED.PROPER.1080p.BluRay.x265-RARBG.EN.srt","Protocol":"File"}],"Formats":[],"Bitrate":2230993,"RequiredHttpHeaders":{},"ReadAtNativeFramerate":false}
  11. >>>>>> User policy for Anthea
  12. EnablePlaybackRemuxing: True
  13. EnableVideoPlaybackTranscoding: True
  14. EnableAudioPlaybackTranscoding: True
  15. >>>>>> Affected codecs
  16. Encoder libx264 Software Encoder
  17. Profiles: Baseline Profile (Level 6.2), Main Profile (Level 6.2), High Profile (Level 6.2), High 10 Profile (Level 6.2), High 4:2:2 Profile (Level 6.2), High 4:4:4 Predictive Profile (Level 6.2)
  18. >>>>>> FindVideoEncoder - Media: h264, UseHardwareCodecs: True, Mode: Automatic
  19. Info Checking: 'libx264 Software Encoder'
  20. Info Check successful - selecting 'libx264 Software Encoder'
  21. >>>>>> FindVideoDecoder - MediaType: hevc, Mode: Automatic
  22. Info Checking: 'Automatic software decoder'
  23. Info Check successful - selecting 'Automatic software decoder'
  24. >>>>>> Processing Plan
  25. Info Name CanDoInHardware WillDoInHardware Reason
  26. Info Automatic software decoder >> False False Software Codec
  27. Info VideoInput >> False False Not a hardware decoder
  28. Info ColorConversion >> False False
  29. Info VideoOutput >> False False Not a hardware encoder
  30. Info libx264 Software Encoder >> False False Software Codec
  31. >>>>>> Projected Processing Formats
  32. Info Previous HW-Context Format SW-Format Size Next
  33. Info hevc >> - yuv420p10 yuv420p10 1920x800 >> format
  34. Info format >> - yuv420p yuv420p 1920x800 >>
  35. /var/packages/EmbyServer/target/bin/ffmpeg -loglevel +timing -y -print_graphs_file "/var/packages/EmbyServer/var/logs/ffmpeg-transcode-437ae35f-c23c-4783-9c22-a907f9687ac8_1graph.txt" -copyts -start_at_zero -f mp4 -c:v:0 hevc -i "/volume1/PlexMedia/Movies/Mission Impossible/Mission.Impossible.1996.REMASTERED.PROPER.1080p.BluRay.x265-RARBG.mp4" -filter_complex "[0:0][email protected]=pix_fmts=yuv420p[f1_out0]" -map [f1_out0] -map 0:1 -sn -c:v:0 libx264 -g:v:0 72 -maxrate:v:0 4000398 -bufsize:v:0 8000796 -sc_threshold:v:0 0 -keyint_min:v:0 72 -pix_fmt:v:0 yuv420p -preset:v:0 veryfast -profile:v:0 high -level:v:0 4.0 -x264opts:v:0 "subme=0:me_range=4:rc_lookahead=10:partitions=none" -crf:v:0 23 -c:a:0 copy -metadata:s:a:0 language=eng -disposition:a:0 default -max_delay 5000000 -avoid_negative_ts disabled -f segment -map_metadata -1 -map_chapters -1 -segment_format mpegts -segment_list "/var/packages/EmbyServer/var/transcoding-temp/C86AF0.m3u8" -segment_list_type m3u8 -segment_time 3 -segment_start_number 0 -individual_header_trailer 0 -write_header_trailer 0 -segment_write_temp 1 "/var/packages/EmbyServer/var/transcoding-temp/C86AF0_%d.ts"
  36. 07:27:21.941 ffmpeg version 4.3.0-emby_2021_02_27 Copyright (c) 2000-2021 the FFmpeg developers and softworkz for Emby LLC
  37. 07:27:21.941 built with gcc 8.3.0 (crosstool-NG 1.24.0)
  38. 07:27:21.974 Execution Date: 2021-10-12 07:27:21
  39. 07:27:22.541 Input #0, mov,mp4,m4a,3gp,3g2,mj2, from '/volume1/PlexMedia/Movies/Mission Impossible/Mission.Impossible.1996.REMASTERED.PROPER.1080p.BluRay.x265-RARBG.mp4':
  40. 07:27:22.541 Metadata:
  41. 07:27:22.541 major_brand : isom
  42. 07:27:22.541 minor_version : 512
  43. 07:27:22.541 compatible_brands: isomiso2mp41
  44. 07:27:22.541 creation_time : 2021-01-10T23:45:12.000000Z
  45. 07:27:22.541 title : Mission.Impossible.1996.REMASTERED.PROPER.1080p.BluRay.x265-RARBG
  46. 07:27:22.541 encoder : Lavf58.20.100
  47. 07:27:22.541 comment : Mission.Impossible.1996.REMASTERED.PROPER.1080p.BluRay.x265-RARBG
  48. 07:27:22.541 Duration: 01:50:12.94, start: 0.000000, bitrate: 2230 kb/s
  49. 07:27:22.541 Stream #0:0(und): Video: hevc (Main 10) (hev1 / 0x31766568), yuv420p10le(tv), 1920x800 [SAR 1:1 DAR 12:5], 2000 kb/s, Level 120, 23.98 fps, 23.98 tbr, 24k tbn, 23.98 tbc (default)
  50. 07:27:22.541 Metadata:
  51. 07:27:22.541 creation_time : 2021-01-10T23:45:12.000000Z
  52. 07:27:22.541 handler_name : VideoHandler
  53. 07:27:22.542 Stream #0:1(eng): Audio: aac (LC) (mp4a / 0x6134706D), 48000 Hz, 5.1, fltp, 224 kb/s (default)
  54. 07:27:22.542 Metadata:
  55. 07:27:22.542 creation_time : 2021-01-10T23:45:12.000000Z
  56. 07:27:22.542 handler_name : SoundHandler
  57. 07:27:22.544 Stream mapping:
  58. 07:27:22.544 Stream #0:0 (hevc) -> format
  59. 07:27:22.544 format -> Stream #0:0 (libx264)
  60. 07:27:22.544 Stream #0:1 -> #0:1 (copy)
  61. 07:27:22.544 Press [q] to stop, [?] for help
  62. 07:27:22.687 [libx264 @ 0xfdaef90] using SAR=1/1
  63. 07:27:22.689 [libx264 @ 0xfdaef90] using cpu capabilities: ARMv8 NEON
  64. 07:27:22.695 [libx264 @ 0xfdaef90] profile High, level 4.0, 4:2:0, 8-bit
  65. 07:27:22.695 [libx264 @ 0xfdaef90] 264 - core 161 r3039 544c61f - H.264/MPEG-4 AVC codec - Copyleft 2003-2021 - http://www.videolan.org/x264.html - options: cabac=1 ref=1 deblock=1:0:0 analyse=0x3:0 me=hex subme=0 psy=1 psy_rd=1.00:0.00 mixed_ref=0 me_range=4 chroma_me=1 trellis=0 8x8dct=1 cqm=0 deadzone=21,11 fast_pskip=1 chroma_qp_offset=0 threads=3 lookahead_threads=1 sliced_threads=0 nr=0 decimate=1 interlaced=0 bluray_compat=0 constrained_intra=0 bframes=3 b_pyramid=2 b_adapt=1 b_bias=0 direct=1 weightb=1 open_gop=0 weightp=1 keyint=72 keyint_min=37 scenecut=0 intra_refresh=0 rc_lookahead=10 rc=crf mbtree=1 crf=23.0 qcomp=0.60 qpmin=0 qpmax=69 qpstep=4 vbv_maxrate=4000 vbv_bufsize=8000 crf_max=0.0 nal_hrd=none filler=0 ip_ratio=1.40 aq=1:1.00
  66. 07:27:22.696 Output #0, segment, to '/var/packages/EmbyServer/var/transcoding-temp/C86AF0_%d.ts':
  67. 07:27:22.696 Metadata:
  68. 07:27:22.696 encoder : Lavf58.35.100
  69. 07:27:22.696 Stream #0:0: Video: h264 (libx264), yuv420p, 1920x800 [SAR 1:1 DAR 12:5], q=-1--1, 23.98 fps, 90k tbn, 23.98 tbc (default)
  70. 07:27:22.696 Metadata:
  71. 07:27:22.696 encoder : Lavc58.62.100 libx264
  72. 07:27:22.696 Side data:
  73. 07:27:22.696 cpb: bitrate max/min/avg: 4000000/0/0 buffer size: 8000000 vbv_delay: N/A
  74. 07:27:22.696 Stream #0:1(eng): Audio: aac (LC) (mp4a / 0x6134706D), 48000 Hz, 5.1, fltp, 224 kb/s (default)
  75. 07:27:23.069 frame= 7 fps=0.0 q=0.0 size= 11kB time=00:00:00.34 bitrate=N/A throttle=off speed= 0x
  76. 07:27:23.676 frame= 16 fps= 14 q=0.0 size= 22kB time=00:00:00.72 bitrate= 460.0kbits/s throttle=off speed=0.339x
  77. 07:27:24.214 frame= 22 fps= 13 q=28.0 size= 29kB time=00:00:00.95 bitrate= 387.3kbits/s throttle=off speed=0.371x
  78. 07:27:24.813 frame= 30 fps= 13 q=28.0 size= 39kB time=00:00:01.30 bitrate= 332.9kbits/s throttle=off speed=0.423x
  79. 07:27:25.376 frame= 37 fps= 13 q=28.0 size= 48kB time=00:00:01.59 bitrate= 309.6kbits/s throttle=off speed=0.444x
  80. 07:27:25.889 frame= 44 fps= 13 q=28.0 size= 56kB time=00:00:01.89 bitrate= 295.1kbits/s throttle=off speed=0.466x
  81. 07:27:26.527 frame= 49 fps= 12 q=28.0 size= 62kB time=00:00:02.09 bitrate= 288.6kbits/s throttle=off speed=0.439x
  82. 07:27:27.177 frame= 53 fps= 11 q=28.0 size= 67kB time=00:00:02.26 bitrate= 283.7kbits/s throttle=off speed=0.414x
  83. 07:27:27.720 frame= 56 fps= 11 q=28.0 size= 70kB time=00:00:02.38 bitrate= 280.6kbits/s throttle=off speed=0.396x
  84. 07:27:28.510 frame= 60 fps= 10 q=28.0 size= 75kB time=00:00:02.55 bitrate= 277.0kbits/s throttle=off speed=0.372x
  85. 07:27:29.326 frame= 64 fps=9.4 q=28.0 size= 83kB time=00:00:02.72 bitrate= 283.2kbits/s throttle=off speed=0.352x
  86. 07:27:29.951 frame= 66 fps=8.9 q=28.0 size= 101kB time=00:00:02.79 bitrate= 337.5kbits/s throttle=off speed=0.331x
  87. 07:27:30.604 frame= 69 fps=8.6 q=28.0 size= 218kB time=00:00:02.92 bitrate= 691.7kbits/s throttle=off speed=0.32x
  88. 07:27:31.147 frame= 71 fps=8.3 q=28.0 size= 255kB time=00:00:03.00 bitrate= 782.4kbits/s throttle=off speed=0.31x
  89. 07:27:31.700 frame= 73 fps=8.0 q=28.0 size= 319kB time=00:00:03.09 bitrate= 949.8kbits/s throttle=off speed=0.301x
  90. 07:27:32.362 frame= 76 fps=7.7 q=28.0 size= 379kB time=00:00:03.22 bitrate=1078.5kbits/s throttle=off speed=0.293x
  91. 07:27:33.001 frame= 79 fps=7.6 q=28.0 size= 417kB time=00:00:03.34 bitrate=1134.9kbits/s throttle=off speed=0.288x
  92. 07:27:33.557 frame= 82 fps=7.4 q=28.0 size= 484kB time=00:00:03.47 bitrate=1265.3kbits/s throttle=off speed=0.285x
  93. 07:27:34.275 frame= 84 fps=7.2 q=28.0 size= 532kB time=00:00:03.56 bitrate=1352.5kbits/s throttle=off speed=0.275x
  94. 07:27:34.924 frame= 87 fps=7.0 q=28.0 size= 574kB time=00:00:03.69 bitrate=1404.7kbits/s throttle=off speed=0.271x
  95. 07:27:35.676 [segment @ 0xfc81ab0] Opening '/var/packages/EmbyServer/var/transcoding-temp/C86AF0.m3u8.tmp' for writing
  96. 07:27:35.693 SegmentComplete=video:0 Index=0 Start=0.000000 End=3.003000 Duration=3.003000 offset_pts=0 start_pts=0 Frames=72 filename=C86AF0_0.ts
  97. 07:27:35.693 [segment @ 0xfc81ab0] Opening '/var/packages/EmbyServer/var/transcoding-temp/C86AF0_1.ts.tmp' for writing
  98. 07:27:35.694 frame= 90 fps=6.8 q=28.0 size= 719kB time=00:00:03.79 bitrate=1704.1kbits/s throttle=off speed=0.263x
  99. 07:27:36.463 frame= 93 fps=6.7 q=28.0 size= 790kB time=00:00:03.92 bitrate=1805.3kbits/s throttle=off speed=0.258x
  100. 07:27:37.375 frame= 96 fps=6.5 q=28.0 size= 866kB time=00:00:04.05 bitrate=1910.3kbits/s throttle=off speed=0.25x
  101. 07:27:38.073 frame= 99 fps=6.4 q=28.0 size= 931kB time=00:00:04.18 bitrate=1984.9kbits/s throttle=off speed=0.247x
  102. 07:27:38.948 frame= 103 fps=6.3 q=28.0 size= 1022kB time=00:00:04.35 bitrate=2086.8kbits/s throttle=off speed=0.244x
  103. 07:27:40.125 frame= 107 fps=6.1 q=28.0 size= 1112kB time=00:00:04.52 bitrate=2177.8kbits/s throttle=off speed=0.238x
  104. 07:27:40.668 frame= 110 fps=6.1 q=28.0 size= 1165kB time=00:00:04.65 bitrate=2215.4kbits/s throttle=off speed=0.238x
  105. 07:27:41.173 frame= 111 fps=6.0 q=28.0 size= 1205kB time=00:00:04.67 bitrate=2279.9kbits/s throttle=off speed=0.232x
  106. 07:27:41.915 frame= 114 fps=5.9 q=28.0 size= 1260kB time=00:00:04.79 bitrate=2314.9kbits/s throttle=off speed=0.23x
  107. 07:27:42.750 frame= 117 fps=5.8 q=28.0 size= 1341kB time=00:00:04.92 bitrate=2396.1kbits/s throttle=off speed=0.227x
  108. 07:27:43.399 frame= 120 fps=5.8 q=28.0 size= 1426kB time=00:00:05.05 bitrate=2477.3kbits/s throttle=off speed=0.226x
  109. 07:27:44.051 frame= 123 fps=5.7 q=28.0 size= 1495kB time=00:00:05.18 bitrate=2529.4kbits/s throttle=off speed=0.225x
  110. 07:27:44.977 frame= 127 fps=5.7 q=28.0 size= 1593kB time=00:00:05.35 bitrate=2602.9kbits/s throttle=off speed=0.223x
  111. 07:27:45.504 frame= 129 fps=5.6 q=28.0 size= 1636kB time=00:00:05.43 bitrate=2629.2kbits/s throttle=off speed=0.222x
  112. 07:27:46.198 frame= 132 fps=5.6 q=28.0 size= 1731kB time=00:00:05.56 bitrate=2713.3kbits/s throttle=off speed=0.221x
  113. 07:27:46.840 frame= 135 fps=5.6 q=28.0 size= 1806kB time=00:00:05.67 bitrate=2773.8kbits/s throttle=off speed=0.22x
  114. 07:27:47.767 frame= 139 fps=5.5 q=28.0 size= 1904kB time=00:00:05.84 bitrate=2833.5kbits/s throttle=off speed=0.218x
  115. 07:27:48.691 frame= 143 fps=5.5 q=28.0 size= 2005kB time=00:00:06.01 bitrate=2894.4kbits/s throttle=off speed=0.217x
  116. 07:27:49.191 frame= 146 fps=5.5 q=28.0 size= 2064kB time=00:00:06.16 bitrate=2903.6kbits/s throttle=off speed=0.219x
  117. 07:27:49.817 frame= 148 fps=5.4 q=28.0 size= 2134kB time=00:00:06.22 bitrate=2968.8kbits/s throttle=off speed=0.216x
  118. 07:27:50.414 frame= 150 fps=5.4 q=28.0 size= 2163kB time=00:00:06.31 bitrate=2966.2kbits/s throttle=off speed=0.214x
  119. 07:27:50.924 frame= 152 fps=5.4 q=28.0 size= 2240kB time=00:00:06.39 bitrate=3029.0kbits/s throttle=off speed=0.213x
  120. 07:27:51.639 frame= 155 fps=5.3 q=28.0 size= 2307kB time=00:00:06.52 bitrate=3055.2kbits/s throttle=off speed=0.213x
  121. 07:27:52.422 frame= 158 fps=5.3 q=28.0 size= 2361kB time=00:00:06.63 bitrate=3072.7kbits/s throttle=off speed=0.211x
  122. 07:27:53.097 frame= 161 fps=5.3 q=28.0 size= 2426kB time=00:00:06.76 bitrate=3095.2kbits/s throttle=off speed=0.21x
  123. 07:27:53.432 [segment @ 0xfc81ab0] Opening '/var/packages/EmbyServer/var/transcoding-temp/C86AF0.m3u8.tmp' for writing
  124. 07:27:53.503 SegmentComplete=video:0 Index=1 Start=3.003000 End=6.006000 Duration=3.003000 offset_pts=0 start_pts=3003000 Frames=72 filename=C86AF0_1.ts
  125. 07:27:53.503 [segment @ 0xfc81ab0] Opening '/var/packages/EmbyServer/var/transcoding-temp/C86AF0_2.ts.tmp' for writing
  126. 07:27:53.663 frame= 164 fps=5.3 q=28.0 size= 2586kB time=00:00:06.89 bitrate=3234.8kbits/s throttle=off speed=0.21x
  127. 07:27:54.251 frame= 165 fps=5.2 q=28.0 size= 2599kB time=00:00:06.93 bitrate=3230.1kbits/s throttle=off speed=0.208x
  128. 07:27:54.803 frame= 168 fps=5.2 q=28.0 size= 2674kB time=00:00:07.06 bitrate=3259.1kbits/s throttle=off speed=0.208x
  129. 07:27:55.320 frame= 170 fps=5.2 q=28.0 size= 2703kB time=00:00:07.14 bitrate=3253.7kbits/s throttle=off speed=0.208x
  130. 07:27:56.013 frame= 173 fps=5.2 q=28.0 size= 2786kB time=00:00:07.27 bitrate=3292.0kbits/s throttle=off speed=0.207x
  131. 07:27:56.598 frame= 176 fps=5.2 q=28.0 size= 2859kB time=00:00:07.40 bitrate=3317.0kbits/s throttle=off speed=0.207x
  132. 07:27:57.323 frame= 179 fps=5.1 q=28.0 size= 2927kB time=00:00:07.50 bitrate=3345.4kbits/s throttle=off speed=0.206x
  133. 07:27:58.061 frame= 182 fps=5.1 q=28.0 size= 2980kB time=00:00:07.63 bitrate=3346.1kbits/s throttle=off speed=0.205x
  134. 07:27:58.697 frame= 185 fps=5.1 q=28.0 size= 3061kB time=00:00:07.76 bitrate=3377.2kbits/s throttle=off speed=0.205x
  135. 07:27:59.258 frame= 187 fps=5.1 q=28.0 size= 3118kB time=00:00:07.85 bitrate=3401.4kbits/s throttle=off speed=0.205x
  136. 07:27:59.892 frame= 190 fps=5.1 q=28.0 size= 3170kB time=00:00:07.97 bitrate=3399.9kbits/s throttle=off speed=0.204x
  137. 07:28:00.462 frame= 192 fps=5.1 q=28.0 size= 3235kB time=00:00:08.06 bitrate=3431.6kbits/s throttle=off speed=0.204x
  138. 07:28:01.021 frame= 194 fps=5.0 q=28.0 size= 3266kB time=00:00:08.14 bitrate=3426.6kbits/s throttle=off speed=0.203x
  139. 07:28:01.734 frame= 197 fps=5.0 q=28.0 size= 3350kB time=00:00:08.27 bitrate=3458.3kbits/s throttle=off speed=0.202x
  140. 07:28:02.356 frame= 200 fps=5.0 q=28.0 size= 3434kB time=00:00:08.40 bitrate=3488.0kbits/s throttle=off speed=0.203x
  141. 07:28:02.949 frame= 202 fps=5.0 q=28.0 size= 3467kB time=00:00:08.46 bitrate=3494.3kbits/s throttle=off speed=0.201x
  142. 07:28:03.524 frame= 205 fps=5.0 q=29.0 size= 3555kB time=00:00:08.59 bitrate=3527.9kbits/s throttle=off speed=0.201x
  143. 07:28:04.151 frame= 207 fps=5.0 q=28.0 size= 3606kB time=00:00:08.68 bitrate=3540.9kbits/s throttle=off speed= 0.2x
  144. 07:28:04.863 frame= 210 fps=5.0 q=29.0 size= 3651kB time=00:00:08.81 bitrate=3531.2kbits/s throttle=off speed= 0.2x
  145. 07:28:05.608 frame= 213 fps=4.9 q=28.0 size= 3725kB time=00:00:08.93 bitrate=3549.6kbits/s throttle=off speed= 0.2x
  146. 07:28:06.190 frame= 216 fps=4.9 q=28.0 size= 3800kB time=00:00:09.06 bitrate=3567.1kbits/s throttle=off speed= 0.2x
  147. 07:28:06.838 frame= 219 fps=4.9 q=28.0 size= 3863kB time=00:00:09.19 bitrate=3574.7kbits/s throttle=off speed= 0.2x
  148. 07:28:07.405 frame= 221 fps=4.9 q=28.0 size= 3896kB time=00:00:09.27 bitrate=3571.0kbits/s throttle=off speed=0.199x
  149. 07:28:08.000 frame= 224 fps=4.9 q=28.0 size= 3967kB time=00:00:09.38 bitrate=3592.7kbits/s throttle=off speed=0.199x
  150. 07:28:08.939 frame= 228 fps=4.9 q=29.0 size= 4028kB time=00:00:09.55 bitrate=3580.4kbits/s throttle=off speed=0.199x
  151. 07:28:09.498 frame= 231 fps=4.9 q=29.0 size= 4067kB time=00:00:09.68 bitrate=3565.4kbits/s throttle=off speed=0.199x
  152. 07:28:10.054 [segment @ 0xfc81ab0] Opening '/var/packages/EmbyServer/var/transcoding-temp/C86AF0.m3u8.tmp' for writing
  153. 07:28:10.098 SegmentComplete=video:0 Index=2 Start=6.006000 End=9.009000 Duration=3.003000 offset_pts=0 start_pts=6006000 Frames=72 filename=C86AF0_2.ts
  154. 07:28:10.098 [segment @ 0xfc81ab0] Opening '/var/packages/EmbyServer/var/transcoding-temp/C86AF0_3.ts.tmp' for writing
  155. 07:28:10.099 frame= 234 fps=4.9 q=28.0 size= 4180kB time=00:00:09.81 bitrate=3615.5kbits/s throttle=off speed=0.199x
  156. 07:28:10.648 frame= 237 fps=4.9 q=28.0 size= 4236kB time=00:00:09.94 bitrate=3614.2kbits/s throttle=off speed= 0.2x
  157. 07:28:11.225 frame= 240 fps=4.9 q=28.0 size= 4293kB time=00:00:10.06 bitrate=3615.3kbits/s throttle=off speed= 0.2x
  158. 07:28:11.861 frame= 244 fps=4.9 q=28.0 size= 4362kB time=00:00:10.23 bitrate=3610.1kbits/s throttle=off speed=0.201x
  159. 07:28:12.449 frame= 248 fps=5.0 q=28.0 size= 4435kB time=00:00:10.38 bitrate=3615.7kbits/s throttle=off speed=0.201x
  160. 07:28:13.074 frame= 252 fps=5.0 q=28.0 size= 4522kB time=00:00:10.55 bitrate=3625.0kbits/s throttle=off speed=0.202x
  161. 07:28:13.597 frame= 256 fps=5.0 q=28.0 size= 4571kB time=00:00:10.73 bitrate=3604.2kbits/s throttle=off speed=0.204x
  162. 07:28:14.113 frame= 260 fps=5.0 q=28.0 size= 4640kB time=00:00:10.90 bitrate=3599.2kbits/s throttle=off speed=0.205x
  163. 07:28:14.793 frame= 265 fps=5.1 q=28.0 size= 4670kB time=00:00:11.11 bitrate=3551.1kbits/s throttle=off speed=0.206x
  164. 07:28:15.355 frame= 269 fps=5.1 q=28.0 size= 4711kB time=00:00:11.26 bitrate=3533.4kbits/s throttle=off speed=0.207x
  165. 07:28:15.869 frame= 273 fps=5.1 q=28.0 size= 4751kB time=00:00:11.43 bitrate=3508.7kbits/s throttle=off speed=0.208x
  166. 07:28:16.384 frame= 275 fps=5.1 q=28.0 size= 4776kB time=00:00:11.51 bitrate=3500.1kbits/s throttle=off speed=0.208x
  167. 07:28:16.909 frame= 280 fps=5.2 q=28.0 size= 4804kB time=00:00:11.73 bitrate=3454.2kbits/s throttle=off speed=0.21x
  168. 07:28:17.418 frame= 284 fps=5.2 q=28.0 size= 4859kB time=00:00:11.90 bitrate=3442.3kbits/s throttle=off speed=0.211x
  169. 07:28:17.977 frame= 288 fps=5.2 q=28.0 size= 4894kB time=00:00:12.07 bitrate=3416.9kbits/s throttle=off speed=0.212x
  170. 07:28:18.504 frame= 292 fps=5.2 q=28.0 size= 4928kB time=00:00:12.22 bitrate=3397.6kbits/s throttle=off speed=0.212x
  171. 07:28:19.113 frame= 297 fps=5.3 q=28.0 size= 4958kB time=00:00:12.43 bitrate=3357.5kbits/s throttle=off speed=0.214x
  172. 07:28:19.621 frame= 301 fps=5.3 q=28.0 size= 4985kB time=00:00:12.60 bitrate=3329.5kbits/s throttle=off speed=0.215x
  173. 07:28:20.477 [segment @ 0xfc81ab0] Opening '/var/packages/EmbyServer/var/transcoding-temp/C86AF0.m3u8.tmp' for writing
  174. 07:28:20.521 SegmentComplete=video:0 Index=3 Start=9.009000 End=12.012000 Duration=3.003000 offset_pts=0 start_pts=9009000 Frames=72 filename=C86AF0_3.ts
  175. 07:28:20.521 [segment @ 0xfc81ab0] Opening '/var/packages/EmbyServer/var/transcoding-temp/C86AF0_4.ts.tmp' for writing
  176. 07:28:20.522 frame= 306 fps=5.3 q=28.0 size= 5153kB time=00:00:12.82 bitrate=3382.5kbits/s throttle=off speed=0.215x
  177. 07:28:21.194 frame= 311 fps=5.3 q=28.0 size= 5180kB time=00:00:13.01 bitrate=3348.4kbits/s throttle=off speed=0.216x
  178. 07:28:21.697 frame= 315 fps=5.3 q=28.0 size= 5216kB time=00:00:13.18 bitrate=3327.1kbits/s throttle=off speed=0.217x
  179. 07:28:22.234 frame= 320 fps=5.4 q=28.0 size= 5248kB time=00:00:13.39 bitrate=3292.7kbits/s throttle=off speed=0.219x
  180. 07:28:22.814 frame= 324 fps=5.4 q=28.0 size= 5296kB time=00:00:13.56 bitrate=3280.3kbits/s throttle=off speed=0.219x
  181. 07:28:23.531 frame= 330 fps=5.4 q=28.0 size= 5339kB time=00:00:13.82 bitrate=3244.0kbits/s throttle=off speed=0.221x
  182. 07:28:24.162 frame= 335 fps=5.4 q=28.0 size= 5380kB time=00:00:14.01 bitrate=3223.2kbits/s throttle=off speed=0.222x
  183. 07:28:24.691 frame= 339 fps=5.5 q=28.0 size= 5405kB time=00:00:14.18 bitrate=3198.2kbits/s throttle=off speed=0.223x
  184. 07:28:25.191 frame= 343 fps=5.5 q=28.0 size= 5436kB time=00:00:14.35 bitrate=3177.3kbits/s throttle=off speed=0.224x
  185. 07:28:25.939 frame= 349 fps=5.5 q=28.0 size= 5487kB time=00:00:14.61 bitrate=3149.8kbits/s throttle=off speed=0.225x
  186. 07:28:26.506 frame= 354 fps=5.5 q=28.0 size= 5525kB time=00:00:14.82 bitrate=3124.5kbits/s throttle=off speed=0.226x
  187. 07:28:27.067 frame= 359 fps=5.6 q=28.0 size= 5560kB time=00:00:15.01 bitrate=3103.4kbits/s throttle=off speed=0.227x
  188. 07:28:27.628 frame= 363 fps=5.6 q=28.0 size= 5581kB time=00:00:15.18 bitrate=3079.1kbits/s throttle=off speed=0.228x
  189. 07:28:28.250 frame= 367 fps=5.6 q=28.0 size= 5607kB time=00:00:15.35 bitrate=3058.2kbits/s throttle=off speed=0.229x
  190. 07:28:28.786 frame= 372 fps=5.6 q=28.0 size= 5628kB time=00:00:15.57 bitrate=3026.7kbits/s throttle=off speed=0.23x
  191. 07:28:29.303 frame= 376 fps=5.6 q=25.0 size= 5650kB time=00:00:15.74 bitrate=3004.9kbits/s throttle=off speed=0.231x
  192. 07:28:29.792 [segment @ 0xfc81ab0] Opening '/var/packages/EmbyServer/var/transcoding-temp/C86AF0.m3u8.tmp' for writing
  193. 07:28:29.839 SegmentComplete=video:0 Index=4 Start=12.012000 End=15.015000 Duration=3.003000 offset_pts=0 start_pts=12012000 Frames=72 filename=C86AF0_4.ts
  194. 07:28:29.839 [segment @ 0xfc81ab0] Opening '/var/packages/EmbyServer/var/transcoding-temp/C86AF0_5.ts.tmp' for writing
  195. 07:28:29.840 frame= 378 fps=5.6 q=28.0 size= 5796kB time=00:00:15.80 bitrate=3069.9kbits/s throttle=off speed=0.23x
  196. 07:28:30.462 frame= 383 fps=5.6 q=28.0 size= 5823kB time=00:00:16.02 bitrate=3042.1kbits/s throttle=off speed=0.231x
  197. 07:28:30.982 frame= 386 fps=5.6 q=28.0 size= 5839kB time=00:00:16.14 bitrate=3025.9kbits/s throttle=off speed=0.231x
  198. 07:28:31.716 frame= 392 fps=5.7 q=28.0 size= 5872kB time=00:00:16.40 bitrate=2994.5kbits/s throttle=off speed=0.232x
  199. 07:28:32.374 frame= 397 fps=5.7 q=28.0 size= 5905kB time=00:00:16.61 bitrate=2971.8kbits/s throttle=off speed=0.233x
  200. 07:28:33.009 frame= 402 fps=5.7 q=28.0 size= 5944kB time=00:00:16.81 bitrate=2956.6kbits/s throttle=off speed=0.234x
  201. 07:28:33.601 frame= 406 fps=5.7 q=28.0 size= 5984kB time=00:00:16.98 bitrate=2946.2kbits/s throttle=off speed=0.234x
  202. 07:28:34.149 frame= 410 fps=5.7 q=28.0 size= 6006kB time=00:00:17.15 bitrate=2926.6kbits/s throttle=off speed=0.235x
  203. 07:28:34.717 frame= 415 fps=5.8 q=28.0 size= 6032kB time=00:00:17.36 bitrate=2902.7kbits/s throttle=off speed=0.236x
  204. 07:28:35.230 frame= 419 fps=5.8 q=28.0 size= 6063kB time=00:00:17.53 bitrate=2888.5kbits/s throttle=off speed=0.237x
  205. 07:28:35.899 frame= 424 fps=5.8 q=28.0 size= 6128kB time=00:00:17.72 bitrate=2887.5kbits/s throttle=off speed=0.237x
  206. 07:28:36.271
  207. [q] command received. Exiting.
  208. 07:28:36.768 07:28:36.768 [segment @ 0xfc81ab0] Opening '/var/packages/EmbyServer/var/transcoding-temp/C86AF0.m3u8.tmp' for writing
  209. 07:28:36.803 SegmentComplete=video:0 Index=5 Start=15.015000 End=17.767756 Duration=2.752756 offset_pts=0 start_pts=15015000 Frames=66 filename=C86AF0_5.ts
  210. 07:28:36.803 frame= 426 fps=5.7 q=-1.0 Lsize= 6183kB time=00:00:17.79 bitrate=2902.6kbits/s throttle=off speed=0.235x
  211. 07:28:36.803 video:5693kB audio:490kB subtitle:0kB other streams:0kB global headers:0kB muxing overhead: 0.000000%
  212. Last message repeated 1 times
  213. 07:28:36.805 EXIT
  214. 07:28:36.872 [libx264 @ 0xfdaef90] frame I:6 Avg QP:17.86 size: 99382
  215. 07:28:36.872 [libx264 @ 0xfdaef90] frame P:136 Avg QP:21.05 size: 21650
  216. 07:28:36.872 [libx264 @ 0xfdaef90] frame B:284 Avg QP:23.48 size: 8058
  217. 07:28:36.872 [libx264 @ 0xfdaef90] consecutive B-frames: 5.9% 12.7% 9.2% 72.3%
  218. 07:28:36.872 [libx264 @ 0xfdaef90] mb I I16..4: 22.1% 39.9% 38.0%
  219. 07:28:36.872 [libx264 @ 0xfdaef90] mb P I16..4: 17.7% 0.0% 0.0% P16..4: 49.9% 0.0% 0.0% 0.0% 0.0% skip:32.4%
  220. 07:28:36.872 [libx264 @ 0xfdaef90] mb B I16..4: 4.0% 0.0% 0.0% B16..8: 18.7% 0.0% 0.0% direct:11.1% skip:66.2% L0:36.1% L1:52.9% BI:11.0%
  221. 07:28:36.872 [libx264 @ 0xfdaef90] 8x8 transform intra:5.8% inter:71.1%
  222. 07:28:36.872 [libx264 @ 0xfdaef90] coded y,uvDC,uvAC intra: 53.4% 43.1% 8.5% inter: 14.9% 11.9% 0.1%
  223. 07:28:36.872 [libx264 @ 0xfdaef90] i16 v,h,dc,p: 26% 23% 38% 14%
  224. 07:28:36.872 [libx264 @ 0xfdaef90] i8 v,h,dc,ddl,ddr,vr,hd,vl,hu: 8% 22% 21% 5% 10% 5% 11% 5% 14%
  225. 07:28:36.872 [libx264 @ 0xfdaef90] i4 v,h,dc,ddl,ddr,vr,hd,vl,hu: 11% 25% 14% 5% 11% 5% 10% 5% 14%
  226. 07:28:36.872 [libx264 @ 0xfdaef90] i8c dc,h,v,p: 36% 40% 9% 14%
  227. 07:28:36.872 [libx264 @ 0xfdaef90] Weighted P-Frames: Y:21.3% UV:11.8%
  228. 07:28:36.872 [libx264 @ 0xfdaef90] kb/s:2624.63
  229. 07:28:36.875
  230. ======= ExtraData
  231. H4sIAAAAAAAAA+VZbW8bNxL+K4KA+2bLfFu+GAhQJ3Hb4JJrYOd6H4pAWEuUvZddrbC78tkt8t/vGa7WJiU5ttO0xeGAFrWoITkzzzPPDNXfxq/qqsqX8/Hxb+Pvi7LzTZv8+cvwd1j1ebdu/D/yyo+Px4u6qfJufDAsf7hd0fLPxdzXmz0H459WXVEvw5n9nz/n5dr3B2/OWRU300XVtbAOX553TbG8xBe362sl2Gr8+ePnzwcbN97M6WYO2zfL1bp7Xyz7s17Vy6WfdX5+Xq+bmQ9m7JgFu7m/GR8znPIRx/xQ1hd5+QS3bnf86Zq1H38+uHcc6930sslXV+10UZR+Z8fRdd4crfLZp/zSt0en1cXtuW+ufRPWy/qyPVosqpW/POyafNnO6rk/VNLkXmaLw5mQs0NlrDx0MyEOc8fMwmlr8pmd8nDppLvpYn9m9ep2Txq33W67vOmmeTf91Tf1A9aUqZDgPiWvfbW+2ceBqr4+qFbqoFL5gbxc4V9xUP1b7JBiOOBLhAgoh0sHyAaQm7qrZ3W5e/1V16127kr3PHrjE6iw2MkSYu6ThBWfV0OWCME9Wbry17P9dTJseTwv7cm6uzM/XuRl6w/G7/y8yP9eUPn25z1y0EFv1TtNFq9w3Gzj5Y+nP78abyzC+r3nYe0sX16S3fnrMyy9L258+X0vAeGgsm6Gj0Plcqq/0yV8XGLxbdF1pd98DCG9WaKiy3zm53cRvSy6s7yja/jEjd5dFN0RMRrL7XvfhEvHxzwLK6/9qrvCJ/DkzC++bxAGwuRDkMWv4Rgn2I1l5MkJKg+FGAyHS7izlvGjjLFgcubz8kvfn7QrqAy+LGr6VhxllIqmDtV/PH6XF8tRiPqtvyZPYRI0qD1Z5lXdrK6K2V2o9yzv8Yh5gT0Bgg9F5V/mbXCFwQ+hej/i9bvFN+1rv8jXJRCgKqYFIBJn9y0gXOcBxTVIg3jK8kN+GchB5qc3AGSZl5sNn0k1HmR1nu+S+mQ9L76a1L3TMafDcY9yOljt5/TJCVE6GAyU7t1+dZWjYZQ4Qt99eJvf1muib/9H9r6GvvOXkO9xTEzB7cSOPg3UPM+rVTnw5bxRdgNGjy7fQneIaAfdo2Hj3sVnQeshUb8P2rbZ7evn64uuQAF/O3SHEx8FeDDcj/H52Yfxvc0Acx/Cm/YH6pTF7C7wO2TEFjKRN1G2hz1fn26K+/NnLP6zKcNIUJfryvOj96W/Cdk4eldfFxgP3hVti8hHb6pVjb8uSj8sTe6XJtw5PTk7fXdy/uH07PT15P3ZT+9PzyacWbaavCzXZ/nt5Ebo7PDs5OzlD5O+USHB6+6um7/b38tbf1n55S7w7x7t3PejRX/E9G403O6a/hI+xLPIZkNZtLvmX5yehokJpoedr1ZHr6w++Z5NKrm2D90w7SiiHa8e2NGhEHeM5T7LfqJarquLkKh0B4t3gPjFdTFf5+X0yueoiyniQO/Y3RZ4Fm/9T1N0/tm7Bhf73ZSoBye+p81CVX4znfsy3x2PQ49kSbj5dV3Mp0t/iYZ5jet3h9N50eag9TzetTtuDdSMjKp8Na18l8/zLt+xP+TbprOrfBVeNPtMSWP6Anl41NzM92lpbG16VBLjaXHfi+WXBZ+i87CPYW56QJzL4gIFrvYPlMOup728Gt/63bpDid0u8rZL3zr13hfOVXF5FduVYe7ZtlKThBbkfr3aw4Z2fVH5F+y48tOGps0X6riZTcu6/pQT8V9wdrxCqRUhshfLeplwfdbsMkfIDbWfNyrfnXm5c6IRKbduGmr9OxGjEqRLdOVivWhpJt02pRZvnE6qdjbtrgDOVV3Ovywon/wtPUKrYvmIo5tX9pcf2Q+9o+m9/by57D5BD9VouemgL6h/Ro5CEdDsAsS7arFpy+Rs1FGf3yamf5tPqBN9vPthIcwJIZLhr/Cia2dNESKj6mTH7GPf2r5b8BfD7xYvNimMi3f/7yfpcUg1vOxG3ZUfFfRmHV0TL0ddPQKxR/UifEMPjmJR+PloRY+fUX9/OxknD/S3xfJT/Pwd7wy1LJ558QG+dO/z+ZD0TWLh+dYbDks/ehQ5lkDUDQ3oKqIGS8df+nhyRoNrYExPoaEVYBactpjD0L3Y3Zf7PPhXMQ/POjzcCOTk16bvwk8/tCTG0S9Q8XQTpaJffloutn/U+rPzE8eXZCCU5UMcerleLHyzIc4ivIAPRvlyPqryT574U43y2cz3syMxiyi1CIehIxbLhEb3yQ4/L43YhpaLpq5GbWhdo/43tQGAi3D9NwVgmydPxYGz0J2+CRaPhf9t8bnGKJdH8Hh8vSn+HqlR/2vf/1rF35XSc0sd3k/ZdJdnLUJOuPbl3P9/6WusH1+nrX+ssN6D+pfx8Olle076s0Mcmt6oeI/qZjSLyVVh8tgQ50/jzZ+pd8/l07aGD7QKS39Au+5Z/1dPNFv0QjrCJLn1PzN+By++cd9/FqPoWbh5NW3ni9LB96nIU6YIGU8RX8j8FtF+P4P+uCb9ZL59TU7T3nifvU1v3MpgSkl67LxarX8s2q5ubkPu3uBNhHv4JBNacqMPwgouYhMulOGSac21zJxxhgRzYy8m+JxpYyN7KzKneWaFU8xJziNzScdbo1Vk7rTWJjMMy9JmMrJWsFYWZ8TWmXZGWSUd58xFxhmMjTaCx8ZGCG6McZxJOj4y1zDPuJKJJ8Yo7eAKQw6siuM0MHfcqSwx10zBP2UN05nOInMLc2mMiNPoLENiWSaVxMYkUEdpcUy7OIsMzlhkJMs4EqQjc84mmcTd2sT2TsMVp6XLlGJZnBoeUEXKEu+FdUJIiXu44zaxFxQt8u4SmIwCmForA3SZiu0BK75CFtJkOsOE4ZlD5FbE9gSsRQB863yLqJg0DNfE2eTZBIAbcC+yN5ZoarRg+IfzxH8CVxmQNbYH8RyIKblSGUuow+2EGe0cNwnRpEKWhQC5EceWvZVG8pTGxlnphLQc/2Eu8Z/wVeBPbK9RJTLEyrWTKs6PIHyJ4ok/8B+OSJEBd84Te8I3Q3pEzAeApKVRDAdxwWN/BPCVAIwnfAAkEpBJqaVOzalqpVY8gYuOhR1uMNwktSJC3RqhUjpYyAEzhrOMpfAKwIvyZNwm9oor2DFrQWYXi4gI8KK8kvMzEi4tOMWL5MX2VLyWA5y0eCU2SAXUMwQd21P16mzrfKOhL0pA7Kj0kvQTvKh/laQ/YwZ3KiuQJpGKIKPzcW1CH+UyBhAzzQmY2B8ZyjdzLKGDUpoLC4WFQCL42J7K1ziZ2FsjrbBQGQ0Z48bG9jLorHGJ/KC0FDjNOW1Ljid4DfqBTasX5s4Zrpw0SbXILKRf2zT9jmuGvEN6VGYSe927b10qnkIwk1kILnpKkh7T22/BhRrXimlG2plkn9CFGKRs5si7FAZ6TvRP3HGB/bgzyQ4+S0Vkgwok4qwCukoLk4qhoFhRkwg8SY8K6KJBydR9mXFpAZZFn4urSxG6Fq4m56M/c6SMgoDQx+YEbmbR6WL3rcG5mAVgLmx6fEAXYuO2tBw0BnnQFtJ0KkLXoeQSLdE2U5B3whdll4QLdCXklCXkR0EJ9Gkog1CJdKpQuxCPVKognpBDDiHHHbE5gaugLyaVKmsxozg0XSCWeNOD69LOqAAGlJBnRjDcEw8ZfelaG3PNSniIOsQUQ004lp6MB39cMh85i2MxZUBvoRHJ8YRtBmlLko/SRBtFn0PZunTmCcpMREnA4uCNzdBgM+4Spc0IXA05SsHlpCGS4w9gHKczI3BR1iYhDyodl0oaeoBb4r8O6dRWb6GF6Y4pAAlRT/wndFFGaXoM7syIClSRJvE/wIvjTEo26BryDwoJl7AnA7wSx5itQcZIDBtAkZpgrISa4IUayUTJkUbMYk6DRTr1X/fjst4aCx1NeCScGA2T4tIiaINNx1+cK2jMg8KZpNHpIMwMopTOtArVThegwhJl1qF2WWa2yMYEyh83YDhJvAmlC2VKswMrKDgcx0zLkuzowB6dCnNGYx7KhEnkScbk1yb0LZb0OasxdTuGxoiyBBSxfVBmzJEpO6EgpMsIBK4l2Q9jFXzMEmnDyI/BTTkRaiye4QO6cDixp8xYTIboQxChmM2G01grWfpGQGmFKR4tUKVjnhEBLpttPUEYAgYlSH10nE8j+7kk25ozmKIummEiiGvRKBJOylky9BNdQRuMW5S72J7QxVmJNzSaSlSclfSAEAovwf8CsXUP8/krAAA=
Comments powered by Disqus