1. Release Name..: Suits S08 1080p BluRay REMUX AVC DTS-HD MA 5.1-EPSiLON
  2. Video.........: MPEG-4 AVC Video / 27995 kbps / 1080p / 23.976 fps / 16:9 / High Profile 4.1
  3. Audio.........: English / DTS-HD Master Audio / 5.1 / 48 kHz / 3226 kbps / 24-bit
  4. Chapters......: Yes (Numbered)
  5. Subtitles.....: English, Danish, Dutch, Finnish, French, Norwegian and Swedish
  6. Source........: Suits.S08.COMPLETE.BLURAY-COASTER (Thanks!)
  7. Notes.........: Enjoy.
  8. General
  9. Unique ID : 92190374178527870530797229329493443945 (0x455B38606F27826D6CE2792A4CC2C569)
  10. Complete name : Suits.S08E01.Right-Hand.Man.1080p.BluRay.REMUX.AVC.DTS-HD.MA.5.1-EPSiLON.mkv
  11. Format : Matroska
  12. Format version : Version 4
  13. File size : 9.35 GiB
  14. Duration : 42 min 53 s
  15. Overall bit rate mode : Variable
  16. Overall bit rate : 31.2 Mb/s
  17. Movie name : Suits - S08E01 - Right-Hand Man
  18. Track name/Position : 1
  19. Track name/Total : 16
  20. Encoded date : UTC 2019-07-25 00:18:59
  21. Writing application : mkvmerge v35.0.0 ('All The Love In The World') 64-bit
  22. Writing library : libebml v1.3.9 + libmatroska v1.5.2
  23. IMDB : tt8258536
  24. TMDB : tv/37680
  25. TVDB : 247808
  26. Video
  27. ID : 1
  28. Format : AVC
  29. Format/Info : Advanced Video Codec
  30. Format profile : [email protected]
  31. Format settings : CABAC / 4 Ref Frames
  32. Format settings, CABAC : Yes
  33. Format settings, Reference frames : 4 frames
  34. Codec ID : V_MPEG4/ISO/AVC
  35. Duration : 42 min 53 s
  36. Bit rate mode : Variable
  37. Bit rate : 27.6 Mb/s
  38. Maximum bit rate : 35.0 Mb/s
  39. Width : 1 920 pixels
  40. Height : 1 080 pixels
  41. Display aspect ratio : 16:9
  42. Frame rate mode : Constant
  43. Frame rate : 23.976 (24000/1001) FPS
  44. Color space : YUV
  45. Chroma subsampling : 4:2:0
  46. Bit depth : 8 bits
  47. Scan type : Progressive
  48. Bits/(Pixel*Frame) : 0.555
  49. Stream size : 8.26 GiB (88%)
  50. Title : MPEG-4 AVC Video / 27995 kbps / 1080p / 23.976 fps / 16:9 / High Profile 4.1
  51. Language : English
  52. Default : Yes
  53. Forced : No
  54. Audio
  55. ID : 2
  56. Format : DTS XLL
  57. Format/Info : Digital Theater Systems
  58. Commercial name : DTS-HD Master Audio
  59. Codec ID : A_DTS
  60. Duration : 42 min 53 s
  61. Bit rate mode : Variable
  62. Bit rate : 3 226 kb/s
  63. Channel(s) : 6 channels
  64. Channel layout : C L R Ls Rs LFE
  65. Sampling rate : 48.0 kHz
  66. Frame rate : 93.750 FPS (512 SPF)
  67. Bit depth : 24 bits
  68. Compression mode : Lossless
  69. Stream size : 990 MiB (10%)
  70. Title : DTS-HD Master Audio / 5.1 / 48 kHz / 3226 kbps / 24-bit
  71. Language : English
  72. Default : Yes
  73. Forced : No
  74. Text #1
  75. ID : 3
  76. Format : PGS
  77. Codec ID : S_HDMV/PGS
  78. Codec ID/Info : Picture based subtitle format used on BDs/HD-DVDs
  79. Duration : 42 min 27 s
  80. Bit rate : 76.9 kb/s
  81. Count of elements : 1788
  82. Stream size : 23.4 MiB (0%)
  83. Title : SDH
  84. Language : English
  85. Default : No
  86. Forced : No
  87. Text #2
  88. ID : 4
  89. Format : PGS
  90. Codec ID : S_HDMV/PGS
  91. Codec ID/Info : Picture based subtitle format used on BDs/HD-DVDs
  92. Duration : 42 min 50 s
  93. Bit rate : 51.5 kb/s
  94. Count of elements : 1278
  95. Stream size : 15.8 MiB (0%)
  96. Language : Danish
  97. Default : No
  98. Forced : No
  99. Text #3
  100. ID : 5
  101. Format : PGS
  102. Codec ID : S_HDMV/PGS
  103. Codec ID/Info : Picture based subtitle format used on BDs/HD-DVDs
  104. Duration : 42 min 50 s
  105. Bit rate : 54.6 kb/s
  106. Count of elements : 1274
  107. Stream size : 16.7 MiB (0%)
  108. Language : Dutch
  109. Default : No
  110. Forced : No
  111. Text #4
  112. ID : 6
  113. Format : PGS
  114. Codec ID : S_HDMV/PGS
  115. Codec ID/Info : Picture based subtitle format used on BDs/HD-DVDs
  116. Duration : 42 min 50 s
  117. Bit rate : 56.8 kb/s
  118. Count of elements : 1294
  119. Stream size : 17.4 MiB (0%)
  120. Language : Finnish
  121. Default : No
  122. Forced : No
  123. Text #5
  124. ID : 7
  125. Format : PGS
  126. Codec ID : S_HDMV/PGS
  127. Codec ID/Info : Picture based subtitle format used on BDs/HD-DVDs
  128. Duration : 42 min 50 s
  129. Bit rate : 51.4 kb/s
  130. Count of elements : 1282
  131. Stream size : 15.8 MiB (0%)
  132. Language : French
  133. Default : No
  134. Forced : No
  135. Text #6
  136. ID : 8
  137. Format : PGS
  138. Codec ID : S_HDMV/PGS
  139. Codec ID/Info : Picture based subtitle format used on BDs/HD-DVDs
  140. Duration : 42 min 50 s
  141. Bit rate : 52.1 kb/s
  142. Count of elements : 1242
  143. Stream size : 16.0 MiB (0%)
  144. Language : Norwegian
  145. Default : No
  146. Forced : No
  147. Text #7
  148. ID : 9
  149. Format : PGS
  150. Codec ID : S_HDMV/PGS
  151. Codec ID/Info : Picture based subtitle format used on BDs/HD-DVDs
  152. Duration : 42 min 50 s
  153. Bit rate : 54.4 kb/s
  154. Count of elements : 1308
  155. Stream size : 16.7 MiB (0%)
  156. Language : Swedish
  157. Default : No
  158. Forced : No
  159. Menu
  160. 00:00:00.000 : en:Chapter 1
  161. 00:07:06.468 : en:Chapter 2
  162. 00:19:30.503 : en:Chapter 3
  163. 00:34:29.484 : en:Chapter 4
Comments powered by Disqus