1. General
  2. Complete name : C:\Users\ddddrelease\Downloads\Creation.Stories.2021.HDRip.XviD.AC3-EVO.mkv st=C-8wuT7bzPztHrwv3SxbhA&e=1626348688.mp4 (convert-video-online.com).mp4
  3. Format : MPEG-4
  4. Format profile : Base Media
  5. Codec ID : isom (isom/iso2/avc1/mp41)
  6. File size : 452 MiB
  7. Duration : 1 h 49 min
  8. Overall bit rate : 575 kb/s
  9. Writing application : Lavf58.45.100
  10. Video
  11. ID : 1
  12. Format : AVC
  13. Format/Info : Advanced Video Codec
  14. Format profile : [email protected]
  15. Format settings : CABAC / 4 Ref Frames
  16. Format settings, CABAC : Yes
  17. Format settings, Reference frames : 4 frames
  18. Codec ID : avc1
  19. Codec ID/Info : Advanced Video Coding
  20. Duration : 1 h 49 min
  21. Bit rate : 514 kb/s
  22. Width : 720 pixels
  23. Height : 388 pixels
  24. Display aspect ratio : 1.85:1
  25. Frame rate mode : Constant
  26. Frame rate : 25.000 FPS
  27. Color space : YUV
  28. Chroma subsampling : 4:2:0
  29. Bit depth : 8 bits
  30. Scan type : Progressive
  31. Bits/(Pixel*Frame) : 0.074
  32. Stream size : 402 MiB (89%)
  33. Writing library : x264 core 155 r2917 0a84d98
  34. Encoding settings : cabac=1 / ref=1 / deblock=1:0:0 / analyse=0x3:0x3 / me=dia / subme=1 / psy=1 / psy_rd=1.00:0.00 / mixed_ref=0 / me_range=16 / chroma_me=1 / trellis=0 / 8x8dct=1 / cqm=0 / deadzone=21,11 / fast_pskip=1 / chroma_qp_offset=0 / threads=12 / lookahead_threads=2 / sliced_threads=0 / nr=0 / decimate=1 / interlaced=0 / bluray_compat=0 / constrained_intra=0 / bframes=3 / b_pyramid=2 / b_adapt=1 / b_bias=0 / direct=1 / weightb=1 / open_gop=0 / weightp=1 / keyint=250 / keyint_min=25 / scenecut=40 / intra_refresh=0 / rc=abr / mbtree=0 / bitrate=514 / ratetol=1.0 / qcomp=0.60 / qpmin=0 / qpmax=69 / qpstep=4 / ip_ratio=1.40 / pb_ratio=1.30 / aq=1:1.00
  35. Menus : 3
  36. Codec configuration box : avcC
  37. Audio
  38. ID : 2
  39. Format : AAC LC
  40. Format/Info : Advanced Audio Codec Low Complexity
  41. Codec ID : mp4a-40-2
  42. Duration : 1 h 49 min
  43. Duration_LastFrame : -22 ms
  44. Bit rate mode : Constant
  45. Bit rate : 56.0 kb/s
  46. Channel(s) : 1 channel
  47. Channel layout : C
  48. Sampling rate : 44.1 kHz
  49. Frame rate : 43.066 FPS (1024 SPF)
  50. Compression mode : Lossy
  51. Stream size : 43.9 MiB (10%)
  52. Title : Surround
  53. Language : English
  54. Default : Yes
  55. Alternate group : 1
  56. Menus : 3
  57. Menu #1
  58. ID : 3
  59. Codec ID : text
  60. Duration : 1 h 49 min
  61. Language : English
  62. Menu For : 1,2
  63. 00:00:00.000 : Scene 1
  64. 00:07:52.227 : Scene 2
  65. 00:13:18.886 : Scene 3
  66. 00:19:19.914 : Scene 4
  67. 00:25:51.472 : Scene 5
  68. 00:32:47.471 : Scene 6
  69. 00:40:01.654 : Scene 7
  70. 00:46:31.502 : Scene 8
  71. 00:52:28.233 : Scene 9
  72. 01:00:55.073 : Scene 10
  73. 01:08:01.124 : Scene 11
  74. 01:16:19.830 : Scene 12
  75. 01:21:24.927 : Scene 13
  76. 01:28:43.114 : Scene 14
  77. 01:36:23.741 : Scene 15
  78. 01:45:36.377 : Scene 16
  79. Menu #2
  80. 00:00:00.000 : Scene 1
  81. 00:07:52.227 : Scene 2
  82. 00:13:18.886 : Scene 3
  83. 00:19:19.914 : Scene 4
  84. 00:25:51.472 : Scene 5
  85. 00:32:47.471 : Scene 6
  86. 00:40:01.654 : Scene 7
  87. 00:46:31.502 : Scene 8
  88. 00:52:28.233 : Scene 9
  89. 01:00:55.073 : Scene 10
  90. 01:08:01.124 : Scene 11
  91. 01:16:19.830 : Scene 12
  92. 01:21:24.927 : Scene 13
  93. 01:28:43.114 : Scene 14
  94. 01:36:23.741 : Scene 15
  95. 01:45:36.377 : Scene 16
Comments powered by Disqus